<?xml version="1.0" standalone="no"?>
<!DOCTYPE svg PUBLIC "-//W3C//DTD SVG 1.1//EN" "http://www.w3.org/Graphics/SVG/1.1/DTD/svg11.dtd" >
<!--
2013-11-22: Created.
-->
<svg xmlns="http://www.w3.org/2000/svg">
<metadata>
Created by FontForge 20120731 at Fri Nov 22 23:59:25 2013
 By Tom Bryan
Created by Tom Bryan with FontForge 2.0 (http://fontforge.sf.net)
</metadata>
<defs>
<font id="fontcustom" horiz-adv-x="512" >
  <font-face 
    font-family="fontcustom"
    font-weight="500"
    font-stretch="normal"
    units-per-em="512"
    panose-1="2 0 6 9 0 0 0 0 0 0"
    ascent="448"
    descent="-64"
    bbox="0 -64 512 448"
    underline-thickness="25.6"
    underline-position="-51.2"
    unicode-range="U+F100-F132"
  />
    <missing-glyph />
    <glyph glyph-name="uniF100" unicode="&#xf100;" 
d="M256 448c141.384 0 256 -114.616 256 -256s-114.616 -256 -256 -256s-256 114.616 -256 256s114.616 256 256 256zM375.419 74.1943l8.26855 4.61816l-4.12695 8.23242c-18.5498 41.7285 -44.3027 68.9824 -64.8955 85.4893
c15.4365 2.05273 32.9521 8.21191 57.6719 22.1387l7.73633 4.09082l-3.61523 8.77051l-19.5586 44.8105l-4.62305 10.2803l-9.80957 -5.65723c-0.501953 -0.49707 -21.0996 -10.8135 -44.7695 -8.23828c25.7432 6.70215 44.7695 29.8701 44.7695 57.6719
c0 33.4844 -26.7627 60.2471 -60.2168 60.2471c-32.9775 0 -59.7402 -26.7627 -59.7402 -60.2471c0 -13.3936 4.61816 -25.749 12.3545 -36.0342c-32.4199 -22.1396 -41.6865 -58.7061 -44.2676 -91.1514c-1.04395 -8.24414 -1.55078 -10.8242 -1.55078 -11.8223
c-20.583 -42.2305 -64.8652 -48.4307 -66.9395 -48.9316l-12.8613 -1.54199l4.61816 -11.8574l21.1104 -57.1289l2.58008 -8.2334l8.77051 2.04785c64.3584 13.3945 87.5117 43.2598 106.062 67.4463c45.3066 -22.6455 61.7822 -59.1826 61.7822 -59.1826
c1.53613 -2.08301 5.15625 -9.27734 5.15625 -9.27734l8.74023 5.65234z" />
    <glyph glyph-name="uniF101" unicode="&#xf101;" 
d="M221.696 179.794c0 22.9014 13.583 33.6279 30.7705 38.6455c9.29785 2.15039 20.0352 2.8623 30.7715 2.8623v-8.59668c0 -16.4551 0.732422 -29.332 -7.86426 -43.6533c-5.00684 -10.0195 -13.6143 -16.4502 -22.9072 -18.6055
c-1.43848 0 -3.57324 -0.716797 -5.72363 -0.716797c-15.7539 0 -25.0469 12.1699 -25.0469 30.0645zM256 448c141.384 0 256 -114.616 256 -256s-114.616 -256 -256 -256s-256 114.616 -256 256s114.616 256 256 256zM272.409 290.012
c5.72949 -8.5957 5.0127 -20.0439 5.01758 -30.0693v-5.71875c-9.30273 -0.711914 -20.0342 -1.41895 -30.7812 -2.85742c-16.4502 -2.15039 -32.9268 -4.99707 -46.5098 -11.4482c-26.4854 -10.7363 -44.3799 -33.6387 -44.3799 -67.2764
c0 -42.2246 27.1924 -63.6934 61.5527 -63.6934c11.4531 0 20.751 1.42871 29.332 3.56348c13.6094 4.30078 25.0518 12.1758 38.6611 26.4805c7.85449 -10.7314 10.0303 -15.7432 23.6084 -27.1865c3.5791 -1.42871 7.15723 -1.42871 10.0195 0.706055
c8.59668 7.16309 23.624 20.0449 31.4834 27.2031c3.59863 2.86133 2.87695 7.16797 0.72168 10.7363c-7.85938 10.0146 -15.7441 18.6064 -15.7441 37.9346v64.4189c0 27.1875 2.15527 52.2451 -17.8789 70.8457c-16.4707 15.0273 -42.2246 20.7568 -62.2695 20.7568
h-8.60156c-36.4951 -2.13477 -75.1514 -17.8848 -83.7324 -62.9863c-1.43359 -5.72461 2.8623 -7.86426 5.72363 -8.57617l40.0801 -5.0127c4.2959 0.711914 6.44043 4.28613 7.15234 7.85938c3.5791 15.7539 16.4658 23.6338 30.7715 25.0527h2.87695
c8.5918 0 17.8848 -3.58398 22.8965 -10.7324zM396.165 73.3848c6.38965 4.61328 0.711914 11.7246 -5.68359 8.87305c-2.84082 -1.05469 -6.03613 -2.47266 -8.88281 -3.54785c-40.8213 -15.9648 -83.7783 -23.4297 -123.54 -23.4297
c-63.207 0 -124.273 17.4033 -173.625 46.1621c-4.60254 2.48828 -7.79785 -2.12988 -3.90137 -5.32422c45.7881 -41.5488 106.148 -66.4014 173.614 -66.4014c41.8975 0 90.1836 11.7246 127.447 34.084c4.98145 2.84082 9.95312 6.04102 14.5713 9.58398zM429.891 96.1182
v2.12402c0 2.84668 -0.716797 4.97656 -1.41797 6.04688c-3.19531 3.8916 -26.6299 7.44434 -46.8789 1.4082c-5.66797 -1.77148 -10.6396 -4.25488 -15.2627 -7.45508c-3.5332 -2.48828 -2.83105 -5.67285 0.72168 -5.32422
c3.90625 0.706055 8.87793 1.07031 14.5459 1.78711c12.4473 1.04883 26.9932 1.41309 30.5508 -3.20508c4.95605 -6.03711 -5.67773 -32.3076 -10.3115 -43.6797c-1.41797 -3.53223 1.77637 -4.96582 4.97168 -2.46777c15.9746 13.4863 22.7119 37.9756 23.0811 50.7656z
" />
    <glyph glyph-name="uniF102" unicode="&#xf102;" 
d="M256.01 338.048c81.9619 0 148.398 -66.4521 148.398 -148.408s-66.4365 -148.408 -148.398 -148.408c-81.9658 0 -148.408 66.4521 -148.408 148.408s66.4375 148.408 148.408 148.408zM249.538 248.889c5.6377 16.4043 -14.5557 24.6016 -23.0908 13.0254
c5.20703 -6.83594 11.6533 -12.4316 23.0908 -13.0254zM223.488 258.954c0 0 -7.81836 -6.83008 -12.4316 -21.3916c0 0 1.66406 -3.08203 5.58105 -6.56836c1.96582 -1.64844 4.56152 -3.43555 7.97656 -5.14551c0.568359 -0.307617 1.13672 -0.588867 1.70508 -0.830078
c0.0410156 -0.0253906 0.0820312 -0.0410156 0.12793 -0.0615234c0.107422 -0.0458984 0.225586 -0.0966797 0.333008 -0.137695c1.66895 -0.748047 3.48145 -1.46484 5.49902 -2.13477c0 0 4.23438 2.6416 9.73828 11.3662
c2.41602 3.52734 4.46973 7.22949 5.74414 10.6953c-11.1201 1.70508 -18.5801 7.07129 -24.2734 14.208zM146.524 174.884h6.51758h15.9844c7.38867 13.7266 16.0977 26.1328 23.0859 40.2588h-41.876h-3.11328h-0.691406v-40.2588h0.0927734zM153.042 109.763
l26.0508 24.873s-12.749 2.1709 -20.7207 11.8369zM160.737 151.798c0 0 4.6084 -12.8359 22.4971 -13.0303c16.3994 26.2295 31.7393 53.5195 47.3652 80.5166c-10.4443 1.9873 -17.7256 7.14258 -23.6846 13.6191c-14.9512 -27.4736 -30.3877 -54.4717 -46.1777 -81.1055z
M300.318 174.3h1.82812l-2.4375 3.30762c-7.78223 12.3701 -15.498 24.8174 -22.9375 37.54h-41.4414c-8.70898 -13 -16.6035 -26.8135 -24.2734 -40.8525h86.1543l3.10742 0.00488281v0zM270.259 240.005c10.1689 -20.2139 19.1748 -40.0996 33.1631 -54.4668
c7.74121 1.33691 14.3252 3.83496 18.3496 8.88379c-8.60645 20.2959 -18.9492 40.5605 -31.375 60.3848c-0.691406 1.10156 -1.39844 2.19727 -2.12988 3.29297c-0.00585938 0.00488281 -0.00585938 0.00488281 -0.0107422 0.00976562
c-10.4502 16.625 -19.0615 28.042 -24.832 35.1074c-2.43164 3.375 -5.04785 6.58496 -7.80762 8.92969c-0.0205078 0.015625 -0.0664062 0.0615234 -0.0664062 0.0615234v-0.00488281c-2.125 1.79688 -4.33203 3.08691 -6.59473 3.51758
c-0.855469 -0.333008 -1.4541 -0.921875 -1.78223 -1.77734c-1.47949 -9.87109 4.69043 -24.7344 8.87793 -34.334c4.88477 -11.1924 9.83105 -20.8896 14.208 -29.6045zM304.599 180.214c4.21973 -8.60645 8.5 -17.1523 14.2031 -24.2793
c9.97363 0.486328 14.8428 6.08301 18.3555 13.0254c-4.3418 7.90039 -7.74121 16.7324 -13.6191 23.0908c-3.37891 -6.87598 -9.96875 -10.5518 -18.9395 -11.8369zM342.487 112.722c9.09277 -7.25977 23.6436 0.102539 20.7256 13.6191
c-0.558594 2.5752 -3.93262 5.30469 -6.5127 8.87793c-6.36426 8.81738 -14.6846 22.0322 -20.127 27.8281c-2.16016 -5.53516 -6.45117 -8.94531 -13.0303 -10.0664c4.90039 -10.4551 10.7314 -33.7002 18.9443 -40.2588zM365.578 174.884v40.2588h-47.3701
c6.59961 -13.9268 14.1514 -26.9004 21.3193 -40.2588h26.0508zM256 448c141.384 0 256 -114.616 256 -256s-114.616 -256 -256 -256s-256 114.616 -256 256s114.616 256 256 256zM256 16.502c95.6211 0 173.148 77.5117 173.148 173.138s-77.5273 173.148 -173.148 173.148
c-95.6318 0 -173.138 -77.5225 -173.138 -173.148s77.5059 -173.138 173.138 -173.138z" />
    <glyph glyph-name="uniF103" unicode="&#xf103;" 
d="M387.118 192.993c6.95312 -11.3408 12.8311 -23.2754 19.3076 -34.8877c5.9082 -10.5928 11.8779 -22.8398 5.97949 -34.79c-0.306641 -0.629883 -0.649414 -1.25977 -1.00781 -1.86426c-10.4707 -17.6436 -29.3584 -28.6357 -48.0107 -35.8291
c-22.4609 -8.65332 -46.6377 -12.7803 -70.5791 -14.4492c-24.7402 -1.72559 -49.7812 -1.64355 -74.4805 0.661133c-22.3232 2.08301 -44.7998 6.05176 -65.8027 14.1309c-17.5459 6.75293 -34.4678 16.7373 -46.208 31.7236
c-2.73926 3.49707 -5.1709 7.22949 -7.23926 11.167c-0.240234 0.470703 -0.491211 0.946289 -0.732422 1.43359c-0.337891 0.696289 -0.46582 0.982422 -0.327148 1.76562c0.3125 1.7207 0.670898 3.43066 1.06934 5.13086c0.757812 3.19434 1.67969 6.3584 2.75 9.4668
c4.10645 11.9756 10.3164 23.0752 16.9775 33.7969c3.3125 5.31445 6.70215 10.5879 10.0713 15.8623c3.44043 5.39062 6.95312 10.7461 10.9004 15.7793c6.41016 8.17188 14.29 16.9775 24.5098 20.2705c14.3564 4.61816 25.0977 -10.2764 33.4082 -19.4717
c4.72559 -5.22266 9.81934 -10.7158 16.3271 -13.6963c3 -1.36719 6.2666 -2.07812 9.56934 -1.87402c4.8125 0.302734 9.08301 3.59961 12.6621 6.55859c9.80957 8.10547 17.8125 18.3506 25.4512 28.4473c8.36133 11.0439 16.4404 22.3232 25.999 32.3887
c3.92188 4.12207 8.10059 9.5957 13.7217 11.418c2.56055 0.834961 5.35547 0.578125 7.79785 -0.542969c1.3418 -0.614258 2.56055 -1.47949 3.62012 -2.50391c1.19824 -1.16211 2.62695 -2.07812 3.96777 -3.08203c10.2607 -7.74121 19.748 -16.4814 28.7178 -25.6719
c7.79785 -7.99707 15.207 -16.3584 22.2979 -24.9951c6.91211 -8.43848 13.5635 -17.0293 19.2822 -26.3428zM256 448c141.384 0 256 -114.616 256 -256s-114.616 -256 -256 -256s-256 114.616 -256 256s114.616 256 256 256zM433.899 109.399
c2.78027 3.77832 5.0127 7.95605 5.41211 12.7021c0.460938 5.56055 -0.460938 11.2129 -1.55664 16.6406c-1.22363 6.01562 -2.83105 11.9395 -4.35156 17.8789c-0.563477 2.16504 -1.10156 4.33105 -1.59277 6.50684c-5.8623 25.7441 -14.8125 50.8213 -26.9717 74.2715
c-10.3018 19.8701 -23.0098 38.6299 -37.7705 55.4697c-13.7783 15.7285 -29.8193 29.4912 -48.2305 39.5107c-9.7793 5.32031 -20.1221 9.56445 -30.7715 12.749c-5.75977 1.72559 -11.6123 3.14355 -17.5098 4.29102
c-1.51074 0.296875 -3.04199 0.675781 -4.58301 0.675781h-5.85156h-11.249c-1.70996 0 -3.44043 0.0820312 -5.14062 -0.123047c-1.57227 -0.189453 -3.13867 -0.410156 -4.70996 -0.666016c-2.99023 -0.486328 -5.95996 -1.08008 -8.90918 -1.78711
c-5.84668 -1.40234 -11.5967 -3.23047 -17.1982 -5.42676c-11.1973 -4.38281 -21.8057 -10.2197 -31.708 -17.0244c-19.3379 -13.291 -36.1367 -30.208 -50.2783 -48.875c-14.9912 -19.7988 -26.9668 -41.8096 -36.2188 -64.8242
c-9.84082 -24.4736 -16.6299 -50.125 -20.8281 -76.1504c-0.542969 -3.33789 -1.32129 -6.80371 -1.32129 -10.1885v-5.44238c0 -0.875977 -0.0205078 -1.33594 0.460938 -2.05859c0.358398 -0.537109 0.711914 -1.0752 1.08008 -1.60742
c2.58105 -3.79395 5.37109 -7.44434 8.34082 -10.9414c5.93945 -6.97363 12.6309 -13.2969 19.8701 -18.9033c15.4121 -11.9189 33.1836 -20.4795 51.6514 -26.501c21.3555 -6.97363 43.6992 -10.6953 66.0479 -12.5488c25.917 -2.15039 52.1875 -2.12012 78.0596 0.588867
c23.9609 2.50879 47.8311 7.46973 70.2822 16.3584c19.8701 7.86914 38.1484 19.1123 54.1279 33.3262c4.12695 3.68066 8.12598 7.62305 11.418 12.0986z" />
    <glyph glyph-name="uniF104" unicode="&#xf104;" 
d="M217.41 176.041c7.1582 -3.25098 10.7676 -9.32324 10.7676 -18.1045c0 -10.4033 -3.73242 -17.4082 -11.1309 -21.0889c-4.08008 -2.0127 -9.76855 -2.97461 -17.1006 -2.97461h-35.748v45.0352h36.3008c7.25 -0.0771484 12.9131 -1.01855 16.9111 -2.86719z
M217.871 211.072c-4.58203 -2.79102 -10.5312 -4.19336 -17.8633 -4.18848h-35.7988v37.2686h31.4873c8.08008 0 14.7354 -0.901367 19.9482 -2.6416c6.05664 -2.51465 9.07715 -7.72656 9.07715 -15.5908c0 -7.10156 -2.28809 -12.0625 -6.85059 -14.8477zM336.85 207.949
c7.49121 0 13.7529 -2.18652 18.7754 -6.54883c5.05859 -4.3418 7.86914 -10.7109 8.45801 -19.1133h-54.5586c1.14648 7.89062 3.94727 14.1367 8.4375 18.7295c4.45996 4.59277 10.7471 6.93262 18.8877 6.93262zM256 448c141.384 0 256 -114.616 256 -256
s-114.616 -256 -256 -256s-256 114.616 -256 256s114.616 256 256 256zM302.541 266.496v-16.917h68.0908v16.917h-68.0908zM256.276 128.563c5.04297 7.94629 7.51074 16.9365 7.51074 26.9619c0 9.69727 -2.18066 17.9561 -6.5791 24.75
c-4.35645 6.83008 -10.8896 11.7812 -19.4863 14.9297c5.68359 2.89258 9.97363 6.09277 12.8721 9.61523c5.20703 6.27734 7.81738 14.5459 7.81738 24.8838c0 9.99902 -2.55957 18.6104 -7.74121 25.7891c-8.61133 11.709 -23.209 17.6689 -43.791 18.002h-81.6689
v-168.965h76.1543c8.56055 0 16.5176 0.757812 23.8594 2.2832c7.3418 1.52051 13.7109 4.33691 19.0928 8.47363c4.79199 3.5791 8.77051 8.02832 11.96 13.2764zM396.938 161.388c0.15332 10.4854 -0.209961 18.5088 -1.03418 24.043
c-1.49023 9.49316 -4.69043 17.8232 -9.65137 25.0322c-5.50879 8.17676 -12.4727 14.1416 -20.9209 17.9199c-8.44727 3.7832 -17.9346 5.66309 -28.4766 5.66309c-17.7617 0 -32.1797 -5.58105 -43.3203 -16.7842c-11.1104 -11.1865 -16.6816 -27.2588 -16.6816 -48.2607
c0 -22.3799 6.16992 -38.5381 18.4785 -48.4814c12.3291 -9.92285 26.542 -14.8936 42.6592 -14.8936c19.5283 0 34.709 5.90332 45.5586 17.6641c6.98828 7.4082 10.8896 14.6943 11.7295 21.877h-32.3174c-1.87891 -3.53223 -4.0498 -6.32324 -6.50781 -8.29883
c-4.51074 -3.73242 -10.3828 -5.56543 -17.582 -5.56543c-6.81934 0 -12.6514 1.5 -17.459 4.55176c-7.96191 4.86914 -12.1699 13.3779 -12.6514 25.5332h88.1768z" />
    <glyph glyph-name="uniF105" unicode="&#xf105;" 
d="M256 448c141.384 0 256 -114.616 256 -256s-114.616 -256 -256 -256s-256 114.616 -256 256s114.616 256 256 256zM401.899 153.692l0.015625 64.8906c0 10.1123 -8.19727 18.3096 -18.3096 18.3096h-15.4414l-0.328125 -0.0205078
c-9.66602 0 -17.5869 7.5 -18.2471 16.998l-0.03125 0.199219c0 50.5498 -40.9805 91.5254 -91.5303 91.5254h-46.1875c-50.5498 0 -91.5195 -40.9756 -91.5195 -91.5254v-100.377c0 -50.5449 40.9697 -91.5254 91.5195 -91.5254h98.5293
c50.5498 0 91.5303 40.9805 91.5303 91.5254zM209.572 236.19c-9.72363 0 -17.6025 7.875 -17.6025 17.5977c0 9.71777 7.88477 17.5977 17.6025 17.5977h51.8291c9.71289 0 17.5928 -7.88477 17.5928 -17.5977c0 -9.72266 -7.88477 -17.5977 -17.5928 -17.5977h-51.8291z
M313.498 168.351c9.2002 0 16.6494 -7.45996 16.6494 -16.6445c0 -9.18555 -7.44922 -16.6455 -16.6494 -16.6455h-104.039c-9.19043 0 -16.6396 7.45996 -16.6396 16.6455c0 9.18457 7.44922 16.6445 16.6396 16.6445h104.039z" />
    <glyph glyph-name="uniF106" unicode="&#xf106;" 
d="M256 448c141.384 0 256 -114.616 256 -256s-114.616 -256 -256 -256s-256 114.616 -256 256s114.616 256 256 256zM196.879 31.4824l161.296 195.835h-102.451l50.2881 143.872l-152.171 -206.019h84.168z" />
    <glyph glyph-name="uniF107" unicode="&#xf107;" 
d="M256 448c141.384 0 256 -114.616 256 -256s-114.616 -256 -256 -256s-256 114.616 -256 256s114.616 256 256 256zM344.971 67.2764c50.959 0 92.2666 41.3086 92.2666 92.2627c0 50.9648 -41.3076 92.2676 -92.2666 92.2676
c-1.87988 0 -3.72266 -0.173828 -5.57129 -0.28125c-7.91992 42.9004 -45.46 75.4326 -90.6592 75.4326c-50.9551 0 -92.2627 -41.3135 -92.2627 -92.2676c0 -1.33594 0.137695 -2.64648 0.199219 -3.97852c-0.0712891 0 -0.12793 0.0107422 -0.199219 0.0107422
c-45.1279 0 -81.7148 -36.582 -81.7148 -81.7207c0 -43.5508 34.0889 -79.0371 77.0195 -81.4893l-0.0302734 -0.0927734h1.8584c0.962891 -0.0351562 1.89941 -0.143555 2.87207 -0.143555s1.91016 0.108398 2.87207 0.143555h181.658v0.0517578
c1.31543 -0.0517578 2.61621 -0.195312 3.95801 -0.195312z" />
    <glyph glyph-name="uniF108" unicode="&#xf108;" 
d="M256.24 331.131c38.918 0 73.5596 -14.7148 100.618 -41.7588c26.584 -26.5879 40.8223 -61.7061 40.8223 -100.152c0 -38.9219 -13.7725 -73.0928 -40.3408 -99.2051c-28.0107 -27.5254 -64.082 -42.2402 -101.1 -42.2402c-37.498 0 -72.6318 14.7148 -99.6807 41.7695
c-27.0488 27.0537 -42.2402 62.6533 -42.2402 99.6758c0 37.4941 15.1914 73.0928 42.2402 100.623c26.583 27.0498 60.7588 41.2881 99.6807 41.2881zM209.101 135.48c19.5693 0 36.2705 10.752 45.4814 27.0586l-21.4893 10.9424
c-4.79688 -11.5156 -12.0879 -14.9717 -21.2988 -14.9717c-15.9287 0 -23.2188 13.2402 -23.2188 30.7051c0 17.459 6.13867 30.7041 23.2188 30.7041c4.59766 0 13.8086 -2.49316 19.1895 -14.0078l23.0195 12.0879c-9.7793 17.8438 -26.4805 24.9453 -45.8594 24.9453
c-28.2109 0 -50.6621 -19.9531 -50.6621 -53.7295c0 -34.3506 21.0986 -53.7344 51.6191 -53.7344zM309.038 135.48c19.5742 0 36.2705 10.752 45.4805 27.0586l-21.498 10.9424c-4.78711 -11.5156 -12.0781 -14.9717 -21.2998 -14.9717
c-15.918 0 -23.2188 13.2402 -23.2188 30.7051c0 17.459 6.14941 30.7041 23.2188 30.7041c4.6084 0 13.8193 -2.49316 19.2002 -14.0078l23.0195 12.0879c-9.78906 17.8438 -26.4805 24.9453 -45.8594 24.9453c-28.2119 0 -50.6631 -19.9531 -50.6631 -53.7295
c0 -34.3506 21.1104 -53.7344 51.6201 -53.7344zM256 448c141.384 0 256 -114.616 256 -256s-114.616 -256 -256 -256s-256 114.616 -256 256s114.616 256 256 256zM379.638 67.707c32.2812 31.8057 49.3623 74.0449 49.3623 121.513
c0 46.9814 -17.0811 89.7021 -49.8281 122.455c-33.2344 33.2188 -75.9551 50.7852 -123.412 50.7852c-47.458 0 -89.2266 -17.5664 -121.508 -50.3145c-33.2236 -33.6992 -51.252 -77.3682 -51.252 -122.931c0 -46.0391 17.5518 -88.7549 50.7803 -121.984
c33.2188 -33.2236 76.4209 -51.2559 121.979 -51.2559c45.5723 0 89.7119 18.0371 123.878 51.7324z" />
    <glyph glyph-name="uniF109" unicode="&#xf109;" 
d="M254.776 195.118v126.203h128.646v-126.203h-126.198v-126.203h-128.646v126.203h126.198zM256 448c141.384 0 256 -114.616 256 -256s-114.616 -256 -256 -256s-256 114.616 -256 256s114.616 256 256 256zM399.36 321.326v7.9668h-0.00585938v7.9668h-144.578h-108.201
h-33.9355v-29.7422v-112.399v-126.192v-14.1826v-1.76172h144.584h108.201h33.9355v23.5322v118.609v126.203z" />
    <glyph glyph-name="uniF10A" unicode="&#xf10a;" 
d="M324.352 370.217c10.9365 -2.40137 19.8867 -10.5059 19.6152 -23.915c-0.148438 -8.10547 -2.22754 -16.707 -5.26855 -24.3154c-7.11133 -21.0127 -17.5107 -41.1084 -26.5117 -61.7012c-16.5527 -38.707 -35.8906 -75.9141 -49.0898 -116.116
c-1.59766 -5.7041 -3.61035 -11.4072 -3.73828 -17.6074c-0.0869141 -4.79297 0.814453 -9.60059 6.50293 -11.0078l1.8125 -0.154297c8.09961 0 20.2695 8.68359 37.8984 26.4551c10.7109 10.5068 17.0693 18.6162 20.541 22.917
c1.95117 1.90527 2.87695 2.8877 5.26855 2.8877c1.91504 0 3.36328 -1.47949 3.30273 -4.37695c-0.0205078 -1.40332 -1.0498 -3.29785 -2.0127 -5.7041c-4.44922 -7.6084 -11.3096 -16.21 -19.6914 -25.2979c-29.7422 -33.0088 -49.1621 -48.3018 -66.3496 -48.3018
c-14.8027 0 -22.7227 14.8066 -22.4414 28.6875c0.0205078 0.998047 0.0507812 2.40039 0.0615234 2.89258l-2.87793 -3.36914c-15.1807 -19.1182 -31.1602 -28.6211 -44.5586 -28.6211c-49.6846 0.901367 -45.2256 55.8955 -31.4629 99.8096
c7.57227 22.9941 22.4512 48.3076 41.4209 66.9131c14.6787 14.3057 32.123 27.208 53.1406 27.208c14.8066 0 30.8379 -9.00586 33.4492 -23.8135l0.429688 -2.89258l3.94727 7.60352c12.9131 25.8096 27.3203 52.1113 36.501 81.2998
c2.02246 6.21094 4.0498 12.4062 5.15039 18.6113c2.18164 9.43164 0.834961 12.1553 3.30273 12.1553zM227.328 149.97c16.3223 26.7168 29.8037 56.4023 30.4023 87.4189c0.230469 11.5 -4.8584 17.7002 -14.9609 17.7002c-11.8984 0 -19.7881 -10.0049 -27.0586 -18.1963
c-24.0537 -28.2061 -40.4736 -64.5127 -41.6621 -99.8203c-0.598633 -13.9053 5.5918 -23.4082 14.7715 -23.4082c3.79883 0 8.04883 1.57227 12.5898 5.20215c7.81836 6.71191 18.54 18.2061 25.918 31.1035zM256 448c141.384 0 256 -114.616 256 -256
s-114.616 -256 -256 -256s-256 114.616 -256 256s114.616 256 256 256zM379.3 286.648c2.61133 6.53809 5.61133 16.543 5.83691 27.3818c0.18457 9.33887 -3.12793 17.5459 -9.07812 23.5518l-31.959 32.2871c0.323242 -0.323242 0.547852 -0.727539 0.860352 -1.06543
c-4.58203 5.04883 -10.8232 8.75488 -18.4521 10.4346c-1.06055 0.246094 -2.29883 0.419922 -3.63086 0.419922c-4.45898 0 -10.04 -2.07324 -11.2275 -12.0732c-0.200195 -1.83301 -0.410156 -4.05469 -1.31055 -7.86426
c-1.01367 -5.54004 -2.8623 -11.248 -4.80273 -17.2793c-7.59277 -24.0693 -18.9541 -46.4854 -29.9521 -68.0713l-1.17773 -2.34473l-1.45898 1.46973c0.486328 -0.491211 0.967773 -1.00879 1.42871 -1.53125c-8.57129 9.68262 -22.1191 14.8125 -34.2783 14.8125
c-26.1279 0 -46.5664 -17.126 -59.6377 -29.9473c-18.8936 -18.5234 -35.293 -44.9893 -43.8125 -70.7168c-9.25195 -29.3633 -16.5732 -69.2939 0.579102 -93.2764c1.52051 -2.13477 3.24023 -4.00879 5.06836 -5.79102
c-0.199219 0.209961 -0.460938 0.342773 -0.670898 0.547852l31.9795 -32.2812c8.41211 -8.50977 20.0908 -12.9541 34.8418 -13.2969c12.9482 0 26.6084 6.61523 39.6396 18.8057l9.7373 -9.8457c5.12012 -5.16113 12.0068 -8.47852 20.5986 -8.47852
c22.4102 0 44.707 19.6963 73.3643 51.374c9.38965 10.3369 16.2607 19.1797 21.3096 28.0264l0.521484 1.32617c1.04492 2.40137 2.1709 4.89551 2.22266 7.78809c0.0917969 4.38281 -1.37207 7.74121 -3.62012 10.0098l-31.9795 32.2969
c0.271484 -0.266602 0.481445 -0.604492 0.732422 -0.901367c-2.37109 2.89746 -5.8623 4.43945 -9.41113 4.43945c-0.112305 0 -0.194336 -0.0410156 -0.311523 -0.0410156c1.64844 3.61426 3.29199 7.25 4.93066 10.834c5.44238 12.0723 11.1406 24.4785 16.4297 36.9658
c2.68262 6.12402 5.54004 12.2471 8.38086 18.4473c6.4873 14.0645 13.2207 28.6104 18.3096 43.5869z" />
    <glyph glyph-name="uniF10B" unicode="&#xf10b;" 
d="M132.25 220.007c0 3.90137 3.46094 3.81348 3.46094 3.81348h18.4365v-56.4062c0 -3.89648 -3.46094 -3.80957 -3.46094 -3.80957h-18.4365v56.4023zM286.475 167.419c0 -3.90625 -3.45605 -3.81445 -3.46191 -3.81445h-18.4365v56.4072
c0 3.89648 3.46094 3.80859 3.46094 3.80859h18.4375v-56.4014zM256 448c141.384 0 256 -114.616 256 -256s-114.616 -256 -256 -256s-256 114.616 -256 256s114.616 256 256 256zM184.586 144.778c0 3.57324 0.015625 140.662 0.0263672 140.662h-27.0293
s-3.45605 0.0917969 -3.45605 -3.80469v-35.2256h-48.2705s-3.45605 0.0917969 -3.45605 -3.80957v-101.632h78.7402s3.44531 -0.0869141 3.44531 3.80957zM224.251 144.768c0 0.793945 0.00976562 101.643 0.0205078 101.643h-27.0137
s-3.45605 0.0917969 -3.45605 -3.79395v-101.643h26.9932s3.45605 -0.0917969 3.45605 3.79395zM224.256 266.64c0 3.57324 0.015625 18.8008 0.0205078 18.8008h-27.0283s-3.45605 0.0917969 -3.45605 -3.80469v-18.8057h27.0078s3.45605 -0.0869141 3.45605 3.80957z
M316.928 108.605c0 3.56836 0.00585938 137.743 0.00585938 137.743l-78.7461 0.0615234s-3.45605 0.0917969 -3.45605 -3.80957v-101.632h51.7275v-13.5625h-48.2715s-3.45605 0.0917969 -3.45605 -3.80957v-18.8008h78.7402s3.45605 -0.0917969 3.45605 3.80957z
M409.59 108.605c0 3.56836 0.00976562 137.743 0.00976562 137.738l-78.7559 0.0664062s-3.45605 0.0917969 -3.45605 -3.80957v-101.632h51.7383v-13.5625h-48.2822s-3.45605 0.0917969 -3.45605 -3.80957v-18.8008h78.7461s3.45605 -0.0917969 3.45605 3.80957z
M379.146 167.419c0 -3.90625 -3.46094 -3.81445 -3.4668 -3.81445h-18.4365v56.4072c0 3.89648 3.45605 3.80859 3.45605 3.80859h18.4473v-56.4014z" />
    <glyph glyph-name="uniF10C" unicode="&#xf10c;" 
d="M266.921 189.158c-80.543 -26.0303 -123.392 -96.9883 -126.935 -103.05c-24.9395 27.6885 -40.1514 64.3018 -40.1514 104.407c0 1.59668 0.0410156 3.18945 0.0820312 4.78125c6.83984 -0.148438 82.5137 -1.12109 160.491 22.2217
c4.46973 -8.75098 8.74023 -17.6338 12.6514 -26.502c-2.05762 -0.588867 -4.11133 -1.19727 -6.13867 -1.8584zM247.501 241.525c-73.042 -19.3945 -137.375 -19.1182 -144.363 -19.0205c10.127 48.4502 42.7871 88.7246 86.4717 109.333
c4.12109 -5.65332 32.0205 -44.3193 57.8916 -90.3125zM359.511 307.328c-2.81055 -4.00391 -26.3115 -35.5996 -81.8379 -56.4121c-25.5898 47.0166 -53.9492 85.6367 -58.2607 91.4121c11.7354 2.83691 23.998 4.35254 36.5879 4.35254
c39.6797 0 75.9297 -14.8896 103.511 -39.3525zM300.027 205.082c-3.23633 7.61816 -6.71777 15.1855 -10.3584 22.6201c57.7432 23.5615 83.9014 57.1182 87.1934 61.5723c21.75 -26.5674 34.9238 -60.4102 35.2617 -97.2695
c-5.15039 1.08008 -56.7705 11.5557 -108.729 5.02832c-1.08984 2.66699 -2.2168 5.35547 -3.36816 8.04883zM282.649 164.849c0.348633 0.123047 0.691406 0.230469 1.03906 0.353516c21.9092 -56.9707 30.9814 -104.72 33.3008 -118.421
c-18.7393 -7.9873 -39.3574 -12.4111 -60.9893 -12.4111c-36.1016 0 -69.3711 12.3193 -95.8516 32.9629c2.81055 5.74512 34.4316 66.8213 122.501 97.5156zM256 448c141.384 0 256 -114.616 256 -256s-114.616 -256 -256 -256s-256 114.616 -256 256s114.616 256 256 256z
M256 7.94629c100.808 0 182.81 82.0117 182.81 182.814s-82.002 182.82 -182.81 182.82c-100.812 0 -182.825 -82.0176 -182.825 -182.82c0 -100.797 82.0127 -182.814 182.825 -182.814zM312.898 172.411c48.9521 7.83301 91.9297 -4.99219 97.2803 -6.67188
c-6.95801 -43.4482 -31.9082 -80.9727 -66.9287 -104.663c-1.60254 9.49805 -9.92285 55.2148 -30.3516 111.335z" />
    <glyph glyph-name="uniF10D" unicode="&#xf10d;" 
d="M256 448c141.384 0 256 -114.616 256 -256s-114.616 -256 -256 -256s-256 114.616 -256 256s114.616 256 256 256zM73.6816 162.432l107.776 -63.3135l62.5508 54.2666l-105.518 64.0664zM251.469 21.4883v125.87l-71.5215 -58.7871l-36.1777 19.5938v-20.3516z
M139.249 228.762l112.22 68.5869l-70.7686 58.7881l-112.302 -69.3398zM331.29 356.132l-70.7695 -58.7881l112.221 -68.582l70.8398 58.0303zM368.21 87.8135v20.3516l-36.1572 -19.5938l-71.5322 58.7871v-125.87zM330.542 99.1182l107.766 63.3135l-64.8193 55.0195
l-105.508 -64.0664z" />
    <glyph glyph-name="uniF10E" unicode="&#xf10e;" 
d="M256 448c141.384 0 256 -114.616 256 -256s-114.616 -256 -256 -256s-256 114.616 -256 256s114.616 256 256 256zM98.2422 74.4912h314.676l-126.372 118.379l-30.5508 -28.0166l-31.248 28.6572l-126.505 -118.503v-0.516602zM413.747 85.1914v224.323h-315.505
v-223.033l120.315 112.712l-120.315 110.321l157.753 -117.515l157.752 117.515l-121.011 -110.966z" />
    <glyph glyph-name="uniF10F" unicode="&#xf10f;" 
d="M256 448c141.384 0 256 -114.616 256 -256s-114.616 -256 -256 -256s-256 114.616 -256 256s114.616 256 256 256zM357.002 114.406c37.9141 67.9531 2.70898 203.284 -19.5225 215.706c-8.21777 4.56152 -31.79 1.74023 -60.0928 -7.01953
c-49.5361 -33.8643 -91.3467 -83.7529 -94.2646 -163.86c-0.532227 -1.91504 -5.41699 0.260742 -6.38477 0.854492c-13.373 25.6406 -18.6777 52.6387 -7.50586 91.5869c2.0791 3.46582 -4.72559 7.73145 -5.94922 6.5127
c-2.45312 -2.45801 -12.6719 -13.3428 -19.4619 -25.1191c-33.6484 -58.373 -11.6426 -133.171 47.2275 -165.903c58.8594 -32.7832 133.182 -11.6328 165.954 47.2422z" />
    <glyph glyph-name="uniF110" unicode="&#xf110;" 
d="M256 448c141.384 0 256 -114.616 256 -256s-114.616 -256 -256 -256s-256 114.616 -256 256s114.616 256 256 256zM361.149 60.6006c5.95996 7.74609 1.54102 18.1445 2.86719 28.5693c2.49902 19.7832 20.582 43.5049 -5.71875 48.5527
c-11.1973 -10.3066 -3.65039 -20.0859 -9.98926 -32.8496c-7.67969 -15.4521 -35.2002 -20.7979 -61.4092 -22.8457c-22.4922 -1.76074 -61.9111 -4.03906 -69.9805 11.4229c-6.80957 13.0459 -2.8623 33.2803 -2.8623 49.9814c0 18.8877 -2.00684 36.9717 2.8623 51.415
c28.5693 -2.10938 65.5205 9.61035 85.6885 -2.85645c13.4912 -8.34082 5.82129 -24.6738 21.4219 -29.9883c10.7422 2.9082 5.0127 16.916 4.28027 29.9883c-0.460938 8.42188 -0.419922 20.2598 0 29.9873c0.579102 13.1279 5.60156 28.3594 -8.57031 28.5596
c-11.1309 -8.72949 -2.75977 -23.2812 -14.2803 -31.416c-3.68066 -2.60645 -11.6836 -3.70703 -17.1309 -4.29102c-21.4023 -2.27832 -54.9736 -0.419922 -72.8428 2.8623c-2.45703 26.3213 -2.24805 62.1875 0 88.54c9.69727 9.71777 32.0107 10.0605 47.1299 9.99902
c26.4902 -0.102539 67.7988 -2.3291 75.6885 -15.708c4.29102 -7.28027 0.891602 -22.5127 8.57129 -24.2734c15.4521 -3.55859 7.94141 24.2637 8.57031 37.1299c0.47168 9.64648 4.69043 15.8564 2.85254 22.8506c-5.00293 6.89648 -12.4521 3.44043 -17.1318 2.85645
c-48.5986 -6.06641 -122.409 -2.85645 -174.229 -2.85645c-6.19043 0 -17.0039 3.11328 -21.4219 -4.28516c-2.99023 -16.4971 19.3232 -9.67676 27.1309 -18.5654c2.54492 -2.8877 6.29199 -15.6572 7.14258 -24.2793c2.25781 -22.8916 0 -57.8457 0 -91.4023
c0 -35.4561 2.66699 -71.2188 0 -92.8301c-0.931641 -7.54688 -5.44238 -19.7021 -7.14258 -21.4229c-9.72852 -9.80957 -35.4512 1.05469 -32.8496 -19.9932c9.03613 -6.13867 22.1279 -1.95605 34.2783 -1.42383c23.5312 1.03516 52.1113 0 79.9688 0
c28.7588 0 58.21 1.93066 81.3984 0c9.36914 -0.777344 17.9863 -6.44043 25.707 -1.42773z" />
    <glyph glyph-name="uniF111" unicode="&#xf111;" 
d="M331.151 207.043c3.3584 -3.45605 5.70898 -7.73145 7.09668 -11.4082c0.926758 -2.47754 1.42773 -4.63281 1.44824 -6.34277c0 -0.47168 -0.0507812 -0.916992 -0.158203 -1.36719c-0.118164 -0.44043 -0.317383 -0.947266 -0.798828 -1.39844
c-0.333008 -0.317383 -0.72168 -0.532227 -1.11133 -0.655273c-0.388672 -0.123047 -0.762695 -0.168945 -1.12109 -0.168945c-0.701172 0.0107422 -1.3418 0.148438 -2.00195 0.364258c-0.670898 0.199219 -1.34668 0.480469 -2.06836 0.797852
c-1.42871 0.635742 -3 1.43945 -4.65918 2.23242c-3.27734 1.58789 -6.88672 3.04688 -9.71777 3.04688h-0.0712891h-0.0107422c-2.10938 0 -4.20898 -0.547852 -6.2002 -1.28027c-1.97656 -0.742188 -3.80957 -1.65332 -5.45801 -2.31445
c-1.11133 -0.44043 -2.12012 -0.798828 -3.28223 -0.813477c-0.44043 0 -0.911133 0.0615234 -1.38184 0.250977c-0.47168 0.183594 -0.921875 0.521484 -1.25 0.926758c-0.439453 0.547852 -0.603516 1.0752 -0.710938 1.61719
c-0.118164 0.553711 -0.15918 1.13672 -0.15918 1.76172c0 2.47266 0.701172 5.84668 2.24316 9.27246c1.54102 3.40918 3.95215 6.86523 7.54102 9.13867c2.38672 1.5 5.2998 2.45801 8.64844 2.45801h0.0205078c2.68262 0 5.16016 -0.670898 7.35156 -1.7666
c2.20215 -1.10059 4.14258 -2.62695 5.81152 -4.35156zM256 448c141.384 0 256 -114.616 256 -256s-114.616 -256 -256 -256s-256 114.616 -256 256s114.616 256 256 256zM164.992 344.008l-55.4238 -55.1787h2.23242h15.0117h28.4004h0.00976562
c3.23145 0 5.20215 0.604492 6.39062 1.36719c1.17676 0.768555 1.71973 1.68457 2.06836 2.93359c0.209961 0.824219 0.301758 1.79785 0.301758 2.81152c0 2.27344 0.266602 15.3496 0.547852 27.9141c0.168945 7.88477 0.353516 15.5342 0.460938 20.1523z
M373.212 63.1709c9.08789 31.5742 11.8174 73.1797 11.8223 112.496c0 43.2334 -3.29199 83.6973 -4.93066 105.263c-0.552734 7.20312 -0.921875 12.2568 -0.921875 14.7764c-0.0205078 5.00195 -1.76074 8.78516 -4.46973 11.8779
c-2.72363 3.07227 -6.45117 5.38672 -10.332 7.06543c-7.72559 3.36914 -15.8975 4.16797 -16.7676 4.24512h-0.0722656l-79.7285 5.08887l-0.12793 1.53125v0.107422c-0.00976562 0.0869141 -0.0205078 0.204102 -0.0410156 0.373047
c-0.0302734 0.323242 -0.0966797 0.80957 -0.199219 1.42871c-0.179688 1.23438 -0.511719 2.98047 -1.0498 5.00781c-1.08008 4.0498 -3.05176 9.19531 -6.41016 13.5527c-2.25293 2.89746 -5.09961 5.44238 -8.76074 7.18848
c-3.37891 1.5918 -7.76172 2.67773 -12.6201 3.32227c-4.87988 0.655273 -10.2402 0.891602 -15.6113 0.891602c-6.3125 0 -12.6211 -0.328125 -18.2119 -0.65625c-5.60059 -0.332031 -10.4492 -0.680664 -13.9209 -0.72168
c-2.73926 -0.0361328 -4.7666 -0.895508 -6.51758 -2.40625c-1.74121 -1.52051 -3.14941 -3.76855 -4.21875 -6.5791c-2.1709 -5.60645 -2.92871 -13.3125 -2.91895 -20.8232c0 -15.2314 0.28125 -22.1494 0.28125 -33.2852
c0 -4.38281 -0.838867 -8.03809 -2.50879 -10.9258c-1.6582 -2.89258 -4.17773 -4.95605 -7.21875 -6.08301c-2.02246 -0.762695 -4.25 -1.11621 -6.67188 -1.12109h-44.3594l-0.0615234 0.00488281c-1.56152 0.102539 -3.05078 0.154297 -4.47949 0.154297h-0.0517578
c-3.63965 0 -6.86035 -0.384766 -9.34863 -1.22363c-2.50391 -0.865234 -4.19336 -2.12012 -5.21191 -3.90723c-0.670898 -1.20312 -1.07031 -2.71289 -1.07031 -4.7002c0 -0.710938 0.0917969 -2.19141 0.28125 -4.20312
c0.189453 -2.01758 0.47168 -4.60254 0.849609 -7.62891c0.732422 -6.07227 1.83301 -13.9473 3.24121 -22.8096c2.80078 -17.71 6.86133 -39.3828 11.833 -58.4248c3.30664 -12.6924 7.0293 -24.2227 10.9971 -32.5781c2.26367 -4.77148 4.62402 -8.49902 6.8916 -10.7617
c0.880859 -0.880859 2.35059 -1.87988 4.28027 -2.84766c1.94043 -0.972656 4.35254 -1.93457 7.0918 -2.87695c5.48828 -1.86328 12.3691 -3.60938 19.7988 -5.1709c14.9092 -3.11816 32.1328 -5.51953 45.501 -6.93262c8.89844 -0.942383 16.1279 -1.4541 19.7383 -1.4541
h0.0205078c1.10059 0.00976562 1.9707 0.301758 2.79004 0.860352c0.829102 0.568359 1.62793 1.44824 2.3291 2.6416c1.42871 2.36523 2.48828 5.91895 3.2207 9.90234c1.46973 7.99219 1.67969 17.6484 2.26855 23.8848
c0.168945 1.79688 0.358398 3.30762 0.660156 4.52051c0.168945 0.655273 0.353516 1.22363 0.680664 1.78711c0.179688 0.296875 0.410156 0.588867 0.77832 0.860352c0.337891 0.271484 0.865234 0.481445 1.39844 0.481445h0.00976562
c0.527344 0 1.0293 -0.154297 1.41797 -0.369141c0.399414 -0.214844 0.727539 -0.475586 1.00879 -0.773438c0.59375 -0.578125 1.07031 -1.26465 1.57227 -2.0625c0.998047 -1.60254 2.06836 -3.68164 3.37891 -6.04199
c2.61621 -4.71094 6.21094 -10.4912 11.6582 -15.0938c3.62988 -3.06738 8.0791 -5.62695 13.7012 -7.05078c7.59863 -1.91406 16.1484 -3.1123 24.2793 -4.44336s15.8516 -2.79102 21.9492 -5.37598c4.0498 -1.73047 7.42871 -3.99414 9.58008 -7.23535
c1.22363 -1.83789 2.00098 -3.98828 2.22168 -6.39453c0.793945 -7.9668 1.54102 -16.7783 1.54102 -24.9961c0 -5.64746 -0.353516 -11.0127 -1.32129 -15.6621c-0.977539 -4.64844 -2.57031 -8.63184 -5.26855 -11.4219
c-1.78125 -1.86914 -4.11133 -3.12891 -6.83984 -3.5127l-0.102539 -0.0107422l-33.1416 -1.3457l-0.107422 0.00976562c-6.01074 0.429688 -10.3682 2.49316 -13.1689 5.48828c-2.80566 2.98047 -3.95801 6.78418 -3.95801 10.4043
c0 2.68262 0.620117 5.30469 1.69043 7.56738c1.08008 2.2627 2.62109 4.19824 4.58203 5.46289c1.30078 0.824219 2.82129 1.33594 4.41895 1.33594h0.0195312c6.68164 0 11.1113 0.18457 13.2715 0.302734l1.10059 24.1865
c-0.209961 0.015625 -0.429688 0.0361328 -0.680664 0.0458984c-1.47949 0.102539 -3.62012 0.205078 -6.17969 0.205078h-0.03125c-5.46289 0 -12.8301 -0.486328 -19.9111 -2.39648c-7.09668 -1.92969 -13.8398 -5.2832 -18.2373 -10.8896
c-2.92871 -3.74316 -4.90039 -8.47852 -5.28906 -14.7354c-0.291992 -4.73633 -0.430664 -9.10352 -0.430664 -13.1025c0 -8.71875 0.629883 -15.7383 1.58203 -21.2217c0.953125 -5.49414 2.22266 -9.45703 3.47168 -12.0176
c0.834961 -1.7041 1.67383 -2.76953 2.23242 -3.21973c1.0293 -0.850586 2.01172 -1.70508 4.0498 -2.70898c2.0332 -0.993164 5.09961 -2.08887 10.0811 -3.08203c9.93848 -2.00195 27.418 -3.63477 58.998 -3.625h0.0712891c6.19043 0 11.71 1.31055 16.7021 3.75293
s9.46191 6.02637 13.4707 10.624c7.99707 9.18555 14.126 22.4355 18.667 38.2109z" />
    <glyph glyph-name="uniF112" unicode="&#xf112;" 
d="M256 448c141.384 0 256 -114.616 256 -256s-114.616 -256 -256 -256s-256 114.616 -256 256s114.616 256 256 256zM316.539 194.56l5.16602 48.543h-44.0322l0.0722656 24.2842c0 12.6572 1.20801 19.4404 19.3887 19.4404h24.29v48.5332h-38.8818
c-46.6836 0 -63.124 -23.5527 -63.124 -63.1406v-29.1221h-29.123v-48.5381h29.123v-140.8h58.25v140.8h38.8711z" />
    <glyph glyph-name="uniF113" unicode="&#xf113;" 
d="M256 448c141.384 0 256 -114.616 256 -256s-114.616 -256 -256 -256s-256 114.616 -256 256s114.616 256 256 256zM165.657 125.271c40.5254 0 73.3857 32.8594 73.3799 73.3799c0 40.54 -32.8594 73.3945 -73.3799 73.3945
c-40.5342 0 -73.3896 -32.8545 -73.3896 -73.3945c0 -40.5205 32.8555 -73.3799 73.3896 -73.3799zM346.348 125.271c40.5352 0 73.3848 32.8594 73.3848 73.3799c0 40.54 -32.8555 73.3945 -73.3848 73.3945c-40.5254 0 -73.3848 -32.8545 -73.3848 -73.3945
c0 -40.5205 32.8594 -73.3799 73.3848 -73.3799z" />
    <glyph glyph-name="uniF114" unicode="&#xf114;" 
d="M256 448c141.384 0 256 -114.616 256 -256s-114.616 -256 -256 -256s-256 114.616 -256 256s114.616 256 256 256zM272.758 36.8389h124.042l-70.4102 164.607l-70.3994 164.618l-70.3906 -164.618l-70.3994 -164.607h124.211v69.0986l-31.4316 23.0195l6.16992 8.42285
l25.2617 -18.499v59.3311h33.3418v-39.6699l26.9717 13.7881l4.76172 -9.28711l-31.7285 -16.2207v-26.1221l48.8906 24.9902l4.75195 -9.29785l-53.6426 -27.4121v-52.1416z" />
    <glyph glyph-name="uniF115" unicode="&#xf115;" 
d="M256 448c141.384 0 256 -114.616 256 -256s-114.616 -256 -256 -256s-256 114.616 -256 256s114.616 256 256 256zM415.354 163.461c15.6934 15.6934 15.6934 41.3848 0 57.083l-0.634766 0.625l-138.173 -138.24c-5.9707 -5.90332 -13.8652 -9.16016 -22.2725 -9.16016
l-6.13379 0.015625l-1.28516 0.855469c-5.63184 1.34082 -10.8389 4.24414 -14.9502 8.37598l-90.916 91.1006c-5.9541 5.94434 -9.24121 13.8496 -9.24121 22.2666s3.29199 16.333 9.24609 22.2666l26.9014 26.875c5.8418 5.81152 13.9307 9.1543 22.251 9.16992
c8.2998 0 16.4199 -3.38379 22.2461 -9.24707l41.918 -41.9883l89.042 89.0879l-59.3057 59.2998c-15.6973 15.6973 -41.3848 15.6973 -57.082 0l-131.303 -131.303c-15.6982 -15.6924 -15.6982 -41.3896 0 -57.083l131.312 -131.308
c15.6982 -15.6924 41.3848 -15.6924 57.0781 0zM424.802 260.48c4.41309 4.40234 4.41797 11.5498 0.00488281 15.9844l-26.8242 26.8643c-2.15527 2.14062 -4.96582 3.32324 -7.99707 3.3125c-3.01562 0.00585938 -5.85254 -1.17773 -8.00293 -3.30176l-128.368 -128.425
l-56.1924 56.2891c-2.10449 2.10938 -4.99219 3.32227 -7.9873 3.3125c-2.96973 -0.00488281 -5.8877 -1.19824 -7.99219 -3.30273l-26.8643 -26.834c-4.42383 -4.4082 -4.43945 -11.5557 -0.015625 -15.9688l90.9414 -91.1367
c1.82324 -1.82715 4.18848 -2.9541 6.70215 -3.23047c0.429688 -0.0615234 0.860352 -0.0869141 1.29492 -0.0820312c0.0263672 0 0.0566406 0 0.0878906 0.0107422l0.00976562 -0.015625c3.03613 -0.00488281 5.91406 1.19336 8.06934 3.32324z" />
    <glyph glyph-name="uniF116" unicode="&#xf116;" 
d="M256.722 130.683c19.2979 0 34.9395 -9.74316 34.9395 -21.7646s-15.6416 -21.7656 -34.9395 -21.7656c-19.2969 0 -34.9385 9.74414 -34.9385 21.7656s15.6416 21.7646 34.9385 21.7646zM252.058 297.989c13.2305 0 23.9512 -13.4756 23.9512 -30.0957
c0 -16.6191 -10.7207 -30.0947 -23.9512 -30.0947s-23.9512 13.4756 -23.9512 30.0947c0 16.6201 10.7207 30.0957 23.9512 30.0957zM256 448c141.384 0 256 -114.616 256 -256s-114.616 -256 -256 -256s-256 114.616 -256 256s114.616 256 256 256zM320.005 267.868
c0 6.5791 -0.957031 12.9385 -2.70312 18.959c7.69043 2.87793 17.3828 7.27637 17.3828 7.27637h-0.0107422v41.7783c-32.2666 -15.5488 -51.7021 -7.59277 -51.7021 -7.59277c-9.40527 4.84375 -20.0752 7.59277 -31.4053 7.59277
c-37.791 0 -68.4287 -30.4482 -68.4287 -68.0137c0 -24.3711 12.9121 -45.7422 32.2969 -57.748c-9.44629 -9.79004 -24.4941 -31.8672 2.21191 -54.9434c-25.0889 -10.8799 -41.5547 -31.1807 -40.2383 -53.4424c1.87402 -31.4727 38.5537 -54.9219 81.9453 -52.3828
c43.3818 2.54004 77.0459 30.1162 75.1826 61.5889c-0.830078 13.8799 -8.42773 26.1992 -20.3828 35.4092l-0.0107422 0.0107422c-1.53613 1.37695 -3.62988 2.75977 -5.93945 4.08594c-5.60645 3.46094 -11.9189 6.33789 -18.7598 8.49414
c-0.0195312 0.0146484 -0.0869141 0.0302734 -0.0869141 0.0302734c-0.0253906 0.00488281 -0.0507812 0.015625 -0.0664062 0.015625c-4.14746 1.30078 -8.4834 2.3291 -12.9688 3.07715c-3.68652 1.00293 -6.6709 1.94043 -9.01074 2.73438
c0.00488281 0.0966797 0.0146484 0.15332 0.0146484 0.15332s-0.77832 0.158203 -2.00195 0.547852c-3.33789 1.21289 -4.86328 1.98633 -4.86328 1.98633c-7.53223 3.83984 -17.3262 12.877 -7.5166 32.3994c37.1611 0.732422 67.0615 30.8789 67.0615 67.9834z" />
    <glyph glyph-name="uniF117" unicode="&#xf117;" 
d="M255.16 327.618c24.2178 -0.685547 42.1582 -9.93262 53.8418 -27.75c11.6689 -17.8281 17.5107 -39.25 17.5107 -64.2812c0 -25.0371 -5.8418 -46.3213 -17.5107 -63.8721c-11.6836 -18.6426 -29.624 -28.1602 -53.8418 -28.5645
c-22.8506 0.404297 -40.2432 9.65625 -52.1621 27.75c-12.0479 17.5518 -18.0684 39.1113 -18.0684 64.6865c0 23.9404 5.89746 45.0967 17.6992 63.4619c11.4229 18.3652 28.9336 27.8887 52.5312 28.5693zM256 448c141.384 0 256 -114.616 256 -256
s-114.616 -256 -256 -256s-256 114.616 -256 256s114.616 256 256 256zM341.417 132.741v203.647h-14.5303v-44.8916h-0.743164c-5.59082 16.4561 -14.8428 28.9072 -27.7598 37.3398c-13.0361 8.2998 -27.4492 12.4521 -43.2188 12.4521
c-27.4531 -0.547852 -48.3115 -10.9521 -62.5918 -31.2217c-14.6582 -20.1318 -21.9795 -44.959 -21.9795 -74.4805c0 -30.3359 6.94727 -55.4346 20.8584 -75.2949c14.0391 -20.2754 35.2666 -30.5459 63.708 -30.8174c33.2803 0.266602 56.9395 16.5938 70.9785 48.9727
h0.742188v-49.3818c0 -3.68164 -0.25 -9.39062 -0.742188 -17.1426c-0.998047 -8.02734 -3.66602 -16.665 -8.00781 -25.917c-4.34668 -8.7041 -11.3662 -16.123 -21.0479 -22.2412c-9.56934 -6.67188 -22.917 -10.1328 -40.0586 -10.4092
c-16.5225 0 -30.4854 4.22363 -41.9131 12.6514c-11.6787 8.2998 -18.5088 21.7705 -20.4902 40.4072h-14.5303c1.49023 -24.2129 9.37012 -41.4873 23.6494 -51.8301c13.9111 -9.92188 31.5498 -14.8936 52.9102 -14.8936c21.1094 0 37.5703 3.87012 49.3721 11.627
c11.668 7.48047 20.0498 16.7988 25.1494 27.9609c5.08887 11.1514 8.13086 21.7646 9.11914 31.8311c0.751953 10.0703 1.12109 17.2744 1.12598 21.6318v0z" />
    <glyph glyph-name="uniF118" unicode="&#xf118;" 
d="M223.642 157.092c7.84375 -0.0869141 15.1602 -1.34668 21.8008 -3.50195c18.2578 -12.6875 32.9883 -20.6289 36.6904 -35.0928c0.69043 -2.93359 1.06934 -5.94434 1.06934 -9.03613c0 -25.5801 -16.4863 -45.5684 -63.7793 -45.5684
c-33.6279 0 -57.9229 21.2939 -57.9229 46.873c0 25.0684 28.5088 46.6953 62.1416 46.3262zM214.154 320.477c22.5693 -0.675781 41.8867 -25.001 45.7832 -54.6514c3.89062 -29.6494 -9.09863 -48.7324 -31.667 -48.0615
c-22.5801 0.680664 -44.0322 21.3916 -47.9287 51.0361c-3.90137 29.6602 11.2383 52.3467 33.8125 51.6768zM256 448c141.384 0 256 -114.616 256 -256s-114.616 -256 -256 -256s-256 114.616 -256 256s114.616 256 256 256zM293.596 267.09
c0 20.168 -8.25293 38.4766 -23.7617 47.3604h21.9854l18.7139 19.6455h-83.7637c-42.5156 0 -77.9307 -31.3398 -77.9307 -65.8184c0 -35.2354 23.2754 -63.3135 63.2471 -63.3135c2.78027 0 5.47266 0.138672 8.125 0.328125
c-2.5957 -4.97168 -4.44922 -10.5117 -4.44922 -16.3232c0 -9.79395 5.38672 -15.375 12.042 -21.8516c-5.02734 0 -9.88672 -0.138672 -15.1904 -0.138672c-48.666 0 -82.7295 -33.4902 -82.7295 -65.6328c0 -31.6475 41.0625 -51.4463 89.7285 -51.4463
c55.4805 0 89.6045 31.4775 89.6045 63.1348c0 25.3799 -5.4834 38.1445 -32.5322 58.4297c-7.7666 5.83105 -24.6631 17.7666 -24.6631 25.7842c0 9.39551 2.67773 14.0283 16.8193 25.0674c14.4893 11.3311 24.7549 26.2559 24.7549 44.7744zM375.225 272.271h38.6504
v19.3174h-38.6504v38.6514h-19.3184v-38.6514h-38.6455v-19.3174h38.6455v-38.6455h19.3184v38.6455z" />
    <glyph glyph-name="uniF119" unicode="&#xf119;" 
d="M354.196 301.107c6.02148 0 10.9209 -4.88477 10.9209 -10.9111v-32.7373c0 -6.02051 -4.89453 -10.9053 -10.9209 -10.9053h-32.7373c-6.02051 0 -10.9004 4.88477 -10.9004 10.9053v32.7373c0 6.02637 4.87988 10.9111 10.9004 10.9111h32.7373zM256.005 246.554
c30.1318 0 54.5537 -24.4229 54.5537 -54.5537s-24.4219 -54.5537 -54.5537 -54.5537c-30.1309 0 -54.5537 24.4229 -54.5537 54.5537s24.4229 54.5537 54.5537 54.5537zM343.28 192.005c0 7.54199 -1.06445 14.8428 -2.86133 21.8271h24.6934v-120.023
c0 -6.02148 -4.89453 -10.9004 -10.9209 -10.9004h-196.378c-6.04102 0 -10.9209 4.87891 -10.9209 10.9004v120.023h24.6992c-1.80273 -6.98438 -2.87207 -14.2852 -2.87207 -21.8271c0 -48.2148 39.0859 -87.2852 87.2852 -87.2852
c48.2002 0 87.2754 39.0703 87.2754 87.2852zM256 448c141.384 0 256 -114.616 256 -256s-114.616 -256 -256 -256s-256 114.616 -256 256s114.616 256 256 256zM365.112 50.166c18.0791 0 32.7217 14.6631 32.7217 32.7422v218.199
c0 18.0732 -14.6484 32.7266 -32.7217 32.7266h-218.22c-18.0781 0 -32.7324 -14.6533 -32.7324 -32.7266v-218.199c0 -18.084 14.6592 -32.7422 32.7324 -32.7422h218.22z" />
    <glyph glyph-name="uniF11A" unicode="&#xf11a;" 
d="M256 448c141.384 0 256 -114.616 256 -256s-114.616 -256 -256 -256s-256 114.616 -256 256s114.616 256 256 256zM284.145 70.7588c-4.91992 3.7627 -7.37793 13.5322 -7.37793 29.2705v181.816c0 15.0371 2.46289 24.709 7.37793 29.0352
c4.91504 4.32715 15.6982 6.8916 32.3281 7.69043h-0.00585938v7.57812h-120.939v-7.57812c16.6299 -0.798828 27.4072 -3.36328 32.3379 -7.69043c4.9209 -4.32617 7.37793 -13.998 7.37793 -29.0352v-181.816c0 -15.7383 -2.45703 -25.5127 -7.37793 -29.2705
c-4.9248 -3.7793 -15.708 -6.25195 -32.3379 -7.43945v-7.58789h120.945v7.58789c-16.6299 1.1875 -27.4072 3.66016 -32.3281 7.43945z" />
    <glyph glyph-name="uniF11B" unicode="&#xf11b;" 
d="M256 448c141.384 0 256 -114.616 256 -256s-114.616 -256 -256 -256s-256 114.616 -256 256s114.616 256 256 256zM187.889 91.4482v173.021h-57.5078v-173.021h57.5078zM159.14 288.082c20.0498 0 32.5322 13.2861 32.5273 29.9111
c-0.368164 16.9727 -12.4824 29.8906 -32.1484 29.8906s-32.5371 -12.9229 -32.5371 -29.8906c0 -16.6201 12.4775 -29.9111 31.7793 -29.9111h0.378906zM395.27 91.4482v99.2158c0 53.1396 -28.3809 77.8701 -66.2227 77.8701
c-30.5205 0 -44.1807 -16.7891 -51.8301 -28.5801v24.5195h-57.5078c0.757812 -16.2402 0 -173.021 0 -173.021h57.5137v96.6201c0 5.1709 0.378906 10.3369 1.89941 14.0283c4.15234 10.3271 13.6191 21.0283 29.5117 21.0283c20.8076 0 29.1279 -15.8721 29.1279 -39.1221
v-92.5596h57.5078z" />
    <glyph glyph-name="uniF11C" unicode="&#xf11c;" 
d="M256 448c141.384 0 256 -114.616 256 -256s-114.616 -256 -256 -256s-256 114.616 -256 256s114.616 256 256 256zM399.078 182.738c15.7344 34.8203 9.09375 78.0693 -14.5869 107.684c-44.3496 55.4697 -134.379 66.1094 -197.15 40.0586
c-37.6934 -15.6514 -63.3037 -45.8086 -70.4512 -86.4307c-4.3877 -24.96 -2.71875 -52.168 7.78223 -75.4688c2.33984 -5.18164 5.15039 -10.1738 8.48926 -14.7812c1.61816 -2.25293 3.3584 -4.40332 5.2373 -6.44141c3.35352 1.25 6.5791 2.81152 9.66211 4.63867
c12.7383 7.53711 22.1387 19.1592 33.0488 28.918c-36.4697 44.3037 2.18164 99.1895 50.5293 111.432c45.0107 11.377 106.01 -8.26367 119.66 -56.8115c5.64746 -20.1064 1.9502 -42.3369 -13.6914 -56.8984c-8.18164 -7.61816 -18.5596 -12.6621 -29.542 -14.71
c-6.41016 -1.19238 -12.9893 -1.38184 -19.4717 -0.710938c-3.60938 0.378906 -7.2041 1.01855 -10.7314 1.88867c-5.99023 1.47949 -11.3203 1.25977 -11.3203 8.02832v53.0889v26.542c0 5.43262 0.511719 4.41406 -3.77832 4.97168
c-3.38965 0.430664 -6.76855 0.77832 -10.1689 1.06055c-11.9395 0.977539 -24.4219 1.64844 -36.2695 -0.492188c-4.42871 -0.798828 -4.71094 -0.0507812 -4.71094 -5.08887v-12.2314v-29.7578c0 -29.6504 2.13574 -59.6533 0.962891 -89.252
c-0.337891 -8.82129 -0.568359 -29.9873 -9.98926 -34.3604c-10.9053 -5.05859 -20.5566 5.6377 -30.6279 7.86914c1.38281 -14.8574 -7.47949 -44.2979 9.04199 -51.7988c15.1504 -6.87598 32.5791 -9.43555 48.5479 -3.75781
c33.46 11.8984 44.2783 50.9385 40.0391 83.0205c51.6504 -16.1787 107.401 10.8906 129.489 59.792z" />
    <glyph glyph-name="uniF11D" unicode="&#xf11d;" 
d="M225.762 215.398c-12.1299 4.38281 -7.58301 16.8496 -7.57812 16.8496l11.6279 50.2119s3.71191 13.6504 15.6719 15.6777c11.96 2.01758 32.3486 -0.374023 37.5703 -1.35156c34.0381 -6.41016 26.7988 -38.5898 26.7988 -38.5898
c-6.74316 -49.71 -84.0908 -42.7979 -84.0908 -42.7979zM256 448c141.384 0 256 -114.616 256 -256s-114.616 -256 -256 -256s-256 114.616 -256 256s114.616 256 256 256zM111.278 85.1201c0 0 -2.46289 -15.4834 13.209 -15.4834h39.1016s18.0332 -1.01855 21.5605 18.873
l12.9795 56.6221s4.03906 16.1689 21.4014 16.1689c17.3516 0 137.503 -4.71094 164.121 82.2373c9.73828 31.7793 16.5078 107.172 -104.801 107.172h-87.6289s-18.2012 0.860352 -22.6914 -18.5088zM406.308 217.108c5.95508 19.4199 10.793 55.1318 -14.0391 79.9697
c12.5029 -22.8975 8.35059 -49.8994 3.46094 -65.8691c-26.624 -86.958 -146.759 -82.2373 -164.121 -82.2373s-21.4014 -16.1797 -21.4014 -16.1797l-12.9795 -56.6221c-3.54297 -19.8809 -21.5703 -18.8721 -21.5703 -18.8721h-39.0918
c-0.988281 0 -1.88867 0.0712891 -2.73926 0.179688c-0.199219 -3.64062 0.323242 -14.2803 13.3223 -14.2803h39.0918s18.0225 -1.00879 21.5703 18.8721l12.9688 56.6221s4.0498 16.1797 21.4121 16.1797c17.3467 0 137.487 -4.7207 164.116 82.2373z" />
    <glyph glyph-name="uniF11E" unicode="&#xf11e;" 
d="M256 448c141.384 0 256 -114.616 256 -256s-114.616 -256 -256 -256s-256 114.616 -256 256s114.616 256 256 256zM273.418 159.462l137.145 -118.522l-120.853 132.475l60.4004 62.7305l-58.0908 -13.9316l-92.9492 83.6611v37.1865l-97.6172 -97.6025l44.1494 2.31934
l79.0166 -95.2832l-9.28711 -51.123z" />
    <glyph glyph-name="uniF11F" unicode="&#xf11f;" 
d="M256 448c141.384 0 256 -114.616 256 -256s-114.616 -256 -256 -256s-256 114.616 -256 256s114.616 256 256 256zM279.46 113.951c56.1562 0 94.249 51.1943 94.2588 119.721c0 51.8037 -43.8936 100.065 -110.581 100.065c-82.9961 0 -124.847 -59.5 -124.847 -109.118
c0 -30.0439 11.3662 -56.7705 35.7734 -66.7334c3.99414 -1.63379 7.58301 -0.0458984 8.74023 4.37207c0.803711 3.06738 2.72363 10.8037 3.56348 14.0186c1.17188 4.37793 0.72168 5.91895 -2.51367 9.7334c-7.03027 8.30957 -11.5156 19.041 -11.5156 34.2578
c0 44.1396 33.0137 83.6553 86.001 83.6553c46.8994 0 72.6836 -28.6514 72.6836 -66.9385c0 -50.3652 -22.2871 -92.8721 -55.3887 -92.8721c-18.2832 0 -31.9434 15.1094 -27.5654 33.6387c5.2373 22.1289 15.4268 46.0186 15.4268 61.9932
c0 14.2842 -7.68066 26.2246 -23.5674 26.2246c-18.6836 0 -33.6953 -19.333 -33.6953 -45.2197c0 -16.4814 5.59082 -27.6377 5.59082 -27.6377s-19.1279 -80.999 -22.4814 -95.1807c-3.12793 -13.2715 -3.5332 -27.9199 -3.04102 -40.1104
c0 0 19.3633 -6.96875 20.623 -7.51074c6.63086 10.4902 13.8701 23.9404 17.5723 37.4014c2.15039 7.77148 12.2871 48.0156 12.2871 48.0156c6.07812 -11.5771 23.8135 -21.7754 42.6758 -21.7754z" />
    <glyph glyph-name="uniF120" unicode="&#xf120;" 
d="M257.039 311.511c38.1855 0 69.1406 -38.8506 69.1406 -86.7783v-35.8506c0 -23.2295 -7.29102 -44.3135 -19.1279 -59.8887c-14.8838 16.0615 -38.2002 29.2607 -67.7939 27.582v-2.82715v-24.5244s20.0654 -0.803711 33.8125 -24.75
c-5.15137 -1.53613 -10.5117 -2.37012 -16.0312 -2.37012c-38.1895 0 -69.1455 38.8496 -69.1455 86.7783v35.8506c0 47.9277 30.9561 86.7783 69.1455 86.7783zM256 448c141.384 0 256 -114.616 256 -256s-114.616 -256 -256 -256s-256 114.616 -256 256
s114.616 256 256 256zM361.882 63.1963c0 0 -26.6445 6.79395 -34.7598 25.707c38.5479 24.5205 64.2402 68.3574 64.2402 118.38c0 76.8408 -60.5996 139.136 -135.362 139.136s-135.362 -62.2949 -135.362 -139.131c0 -76.8506 60.5996 -139.141 135.362 -139.141
c10.9922 0 21.6729 1.37695 31.9082 3.92676c12.8506 -23.7061 32.4248 -40.4785 73.9736 -32.4609v23.583z" />
    <glyph glyph-name="uniF121" unicode="&#xf121;" 
d="M217.846 258.806c10.1172 0 18.3145 -8.19727 18.3145 -18.3145s-8.19727 -18.3135 -18.3145 -18.3135s-18.3145 8.19629 -18.3145 18.3135s8.19727 18.3145 18.3145 18.3145zM196.034 222.315c6.56934 0 11.8945 -5.3252 11.8945 -11.8936
c0 -6.56934 -5.3252 -11.8936 -11.8945 -11.8936c-6.56836 0 -11.8936 5.32422 -11.8936 11.8936c0 6.56836 5.3252 11.8936 11.8936 11.8936zM256 448c141.384 0 256 -114.616 256 -256s-114.616 -256 -256 -256s-256 114.616 -256 256s114.616 256 256 256z
M108.749 227.814c0 0 -6.38477 -31.3145 4.0752 -39.2197c0 0 5.33008 -7.66406 21.002 -13.3369c0.0820312 -0.03125 0.138672 -0.0410156 0.21582 -0.0722656c1.25879 -4.71484 2.72852 -9.34375 4.48438 -13.8291c4.9668 -0.900391 10.1895 -1.9502 15.6211 -3.17871
c-9.57422 16.3271 -15.042 35.1172 -15.042 55.1367c0 62.6895 53.5039 113.516 119.501 113.516c66.002 0 119.511 -50.8213 119.511 -113.516c0 -19.4814 -5.18164 -37.8115 -14.2744 -53.8369c6.2666 1.31055 12.2266 2.38086 17.7148 3.25684
c1.58203 4.20801 2.92871 8.5293 4.08105 12.9277c14.8174 5.62695 19.9268 12.9326 19.9268 12.9326c10.4551 7.90527 4.07031 39.2197 4.07031 39.2197c-3.54785 12.2266 -9.99902 19.6758 -16.1436 24.1973v68.1113c8.40723 1.98145 14.6738 9.5127 14.6738 18.5244
c0 10.5156 -8.51953 19.0459 -19.041 19.0459s-19.0518 -8.53027 -19.0518 -19.0459c0 -7.9668 4.89551 -14.7871 11.8428 -17.6289v-63.124c-0.77832 0.240234 -1.4082 0.404297 -1.98145 0.537109c-19.5684 47.0889 -66.002 80.21 -120.171 80.21
c-54.0781 0 -100.435 -32.9932 -120.075 -79.9434c-3.54785 -0.639648 -23.5264 -5.36035 -30.9395 -30.8838zM356.972 155.694c4.52051 11.7812 7.02441 24.5605 7.01953 37.9336c0 58.5625 -47.4727 106.03 -106.03 106.03s-106.03 -47.4727 -106.03 -106.03
c0 -13.752 2.65234 -26.8799 7.41406 -38.9424c33.9814 -8.25879 73.7383 -23.5215 96.6553 -51.5479v0.00488281c23.9053 29.2246 66.0938 44.5596 100.972 52.5518zM414.72 106.188v42.7373s-112.937 -5.06934 -158.72 -61.0508
c-45.7832 55.9863 -158.72 61.0449 -158.72 61.0449v-42.7314c102.251 -0.480469 158.72 -70.748 158.72 -70.748v0.00488281s56.4688 70.2627 158.72 70.7432z" />
    <glyph glyph-name="uniF122" unicode="&#xf122;" 
d="M307.609 123.325c0 -0.0410156 0 -0.132812 -0.0146484 -0.204102c0.388672 -0.896484 0.578125 -2.10449 0.0195312 -3.56445c-0.0810547 -0.43457 -0.214844 -0.824219 -0.450195 -1.12598c-0.173828 -0.189453 -0.358398 -0.337891 -0.522461 -0.537109
c-0.102539 -0.128906 -0.183594 -0.256836 -0.301758 -0.389648c-0.322266 -0.388672 -0.625 -0.670898 -0.926758 -0.926758c-0.378906 -0.399414 -0.706055 -0.803711 -1.10547 -1.17188c-2.22754 -2.09961 -4.72656 -3.8916 -7.37305 -5.39648
c-5.14062 -2.91895 -10.8291 -4.80273 -16.5791 -6.14453v-0.0205078c-0.204102 -0.0566406 -0.414062 -0.0771484 -0.628906 -0.123047c-0.282227 -0.0615234 -0.538086 -0.148438 -0.819336 -0.214844c-1.19336 -0.255859 -2.40723 -0.476562 -3.60449 -0.691406
c-0.291992 -0.0458984 -0.579102 -0.102539 -0.860352 -0.168945c-1.83789 -0.327148 -3.70703 -0.603516 -5.57031 -0.865234c-0.748047 -0.0869141 -1.49512 -0.132812 -2.25293 -0.168945c-8.61719 -0.870117 -16.3438 -0.624023 -22.7432 0.0664062h-0.0205078
c-0.015625 0 -0.0361328 0.0205078 -0.0722656 0.0205078c-11.4688 1.26465 -18.5957 3.90137 -18.5957 3.90137v0.046875c-3.55273 1.14648 -7.02441 2.5498 -10.2656 4.3877c-2.45215 1.3877 -4.7666 3.03613 -6.86523 4.91992
c-1.0293 0.9375 -1.99219 1.9248 -2.90332 2.97949c-0.369141 0.405273 -0.583984 0.845703 -0.737305 1.30566c-0.604492 1.62891 -0.456055 2.88281 -0.168945 3.74805c0.00976562 0.118164 0.0205078 0.225586 0.0205078 0.342773
c0.199219 0.287109 0.415039 0.583984 0.650391 0.871094c0.0351562 0.0351562 0.0458984 0.0556641 0.0712891 0.0820312c1.3623 1.70508 3.19531 3.27148 5.49414 2.85645c2.46777 -0.455078 4.52637 -2.53418 6.41016 -4.0293
c3.90137 -3.07715 8.41211 -5.02246 13.1582 -6.41016c14.0752 -4.11621 29.9111 -4.50586 44.3086 -1.99219c6.90137 1.18848 12.6104 3.33398 18.3193 7.4248c4.32129 3.11816 9.5791 6.95801 13.6699 2.76953v0.0107422s0.538086 -0.435547 0.999023 -1.21875
c0.0917969 -0.123047 0.168945 -0.235352 0.260742 -0.369141zM229.719 181.191c0 -11.8525 -9.61523 -21.4629 -21.4785 -21.4629c-11.8623 0 -21.4775 9.61523 -21.4775 21.4629c0 11.874 9.60938 21.4893 21.4775 21.4893c11.8633 0 21.4785 -9.61523 21.4785 -21.4893z
M303.856 202.681c11.8584 0 21.4736 -9.61523 21.4736 -21.4893c0 -11.8477 -9.61523 -21.4629 -21.4736 -21.4629c-11.8633 0 -21.4785 9.61523 -21.4785 21.4629c0 11.874 9.61035 21.4893 21.4785 21.4893zM256 448c141.384 0 256 -114.616 256 -256
s-114.616 -256 -256 -256s-256 114.616 -256 256s114.616 256 256 256zM396.217 173.932c10.9814 6.2002 18.5088 17.8535 18.5088 31.3799c0 19.9736 -16.2002 36.1787 -36.168 36.1787c-9.50293 0 -18.0947 -3.74316 -24.5508 -9.73828
c-22.9834 14.9141 -53.5244 24.6777 -87.4492 26.6445l20.8691 57.7998l45.2607 -11.6387c0.573242 -16.2451 13.8389 -29.2754 30.249 -29.2754c16.7578 0 30.3457 13.5732 30.3457 30.3359s-13.583 30.3564 -30.3457 30.3564
c-12.9688 0 -23.9619 -8.17188 -28.3037 -19.6152l-55.9873 12.8926l-25.0156 -70.4512c-37.6738 -0.0664062 -71.8184 -9.85645 -97.291 -25.6875c-6.26172 5.15137 -14.1514 8.37695 -22.8857 8.37695c-19.9629 0 -36.168 -16.2002 -36.168 -36.1787
c0 -12.0771 5.97461 -22.6914 15.0479 -29.2607c-0.727539 -3.92188 -1.24902 -7.89453 -1.24902 -11.9395c0 -52.3105 63.9893 -94.7305 142.96 -94.7305c78.9404 0 142.945 42.4248 142.945 94.7305c0 3.30762 -0.28125 6.5791 -0.772461 9.82031z" />
    <glyph glyph-name="uniF123" unicode="&#xf123;" 
d="M256 448c141.384 0 256 -114.616 256 -256s-114.616 -256 -256 -256s-256 114.616 -256 256s114.616 256 256 256zM181.141 85.5957c15.9893 0.0722656 28.9326 13.1123 28.8818 29.082c-0.0205078 15.9336 -13.0049 28.8818 -29.0459 28.8818
c-15.959 -0.0615234 -28.918 -13.1123 -28.9072 -29.0811c0.0615234 -15.9238 13.04 -28.8828 28.9688 -28.8828h0.102539zM265.595 85.9238l39.332 0.12793c-2.20117 81.5615 -68.2295 145.173 -153.17 147l0.102539 -39.2803
c63.6514 -1.56152 111.683 -47.1504 113.735 -107.848zM348.053 86.2314l39.3262 0.168945c-2.34961 127.872 -105.001 227.691 -235.848 229.1l0.107422 -39.291c108.811 -1.46973 194.13 -84.0908 196.414 -189.978z" />
    <glyph glyph-name="uniF124" unicode="&#xf124;" 
d="M307.625 192.701c5.72949 -3.74805 10.209 -8.5293 13.4092 -14.29c3.22559 -5.80078 4.81836 -12.8613 4.81836 -21.1709c0 -9.99414 -2.78027 -18.9902 -8.34082 -26.9619c-5.54004 -7.97656 -13.6709 -14.208 -24.3145 -18.6875
c-10.6602 -4.48535 -23.2607 -6.72852 -37.8115 -6.72852c-17.4287 0 -31.8672 3.05176 -43.2695 9.20117c-8.0791 4.41797 -14.6631 10.3418 -19.7012 17.7305c-5.06934 7.37793 -7.61914 14.6074 -7.61914 21.6572c0 4.16309 1.58203 7.7832 4.69043 10.7422
c3.10742 2.95898 7.11621 4.44922 11.8682 4.44922c3.87598 0 7.22949 -1.17285 9.92773 -3.49219c2.69824 -2.31348 4.96094 -5.69336 6.81934 -10.1318c2.22754 -5.16113 4.62891 -9.46191 7.19922 -12.9023c2.54395 -3.41016 6.12305 -6.22656 10.7617 -8.45898
c4.6084 -2.20605 10.7217 -3.32715 18.3604 -3.32715c10.4805 0 18.9395 2.25781 25.4209 6.7373c6.48242 4.50098 9.64062 9.97949 9.64062 16.6094c0 5.28906 -1.71973 9.4873 -5.15039 12.7588c-3.48633 3.30762 -7.99707 5.83691 -13.5889 7.59863
c-5.60059 1.77637 -13.127 3.65527 -22.5791 5.65723c-12.6719 2.75977 -23.2803 5.98047 -31.8516 9.68164c-8.60156 3.71191 -15.4521 8.78125 -20.5312 15.2021c-5.08887 6.46582 -7.62793 14.5098 -7.62793 24.0273c0 9.1084 2.6875 17.2295 8.04785 24.3105
c5.36133 7.08008 13.0977 12.5127 23.1885 16.291c10.0918 3.76855 21.9443 5.6582 35.5234 5.6582c10.8389 0 20.2393 -1.24902 28.2002 -3.75879c7.93164 -2.49805 14.5518 -5.8418 19.8193 -10.0088c5.24316 -4.1582 9.11914 -8.55078 11.5713 -13.1592
c2.44238 -4.60254 3.67188 -9.12305 3.67188 -13.5312c0 -4.0918 -1.57715 -7.80859 -4.66992 -11.0498c-3.09766 -3.26074 -7.04004 -4.91992 -11.6582 -4.91992c-4.16211 0 -7.42383 0.983398 -9.69238 3.01074c-2.21191 1.9502 -4.54102 5.09961 -7.0498 9.46191
c-3.15918 6.08691 -6.96387 10.8281 -11.3516 14.2178c-4.30566 3.32812 -11.376 5.05859 -21.2578 5.04883c-9.11914 0 -16.4199 -1.84863 -21.9287 -5.50977c-5.54004 -3.71191 -8.19238 -8.00195 -8.20215 -13.0508
c0.00976562 -3.13867 0.911133 -5.81152 2.73828 -8.0791c1.86426 -2.29883 4.43945 -4.29102 7.74219 -5.96973c3.32227 -1.68945 6.69141 -3.01562 10.0908 -3.96875c3.43066 -0.957031 9.1084 -2.37012 17.0195 -4.21875
c9.9375 -2.15527 18.9385 -4.53613 27.0078 -7.14746c8.0791 -2.60547 14.9707 -5.78027 20.6592 -9.52832zM256 448c141.384 0 256 -114.616 256 -256s-114.616 -256 -256 -256s-256 114.616 -256 256s114.616 256 256 256zM317.343 48.666
c43.7295 0 79.1709 35.4502 79.1709 79.1807c0 15.2568 -4.31152 29.4912 -11.7812 41.5693c1.0498 6.6709 1.59766 13.4912 1.59766 20.4385c0 72.3506 -58.6504 131.011 -131.011 131.011c-6.95801 0 -13.7783 -0.557617 -20.4492 -1.59766
c-12.0781 7.45996 -26.3066 11.792 -41.5596 11.792c-43.7295 0 -79.1807 -35.4619 -79.1807 -79.1914c0 -15.2471 4.32129 -29.4814 11.7812 -41.5693c-1.04492 -6.66113 -1.59277 -13.4805 -1.59277 -20.4395c0 -72.3506 58.6504 -131.01 131.006 -131.01
c6.94824 0 13.7881 0.557617 20.4395 1.59668c12.0879 -7.45898 26.3213 -11.7803 41.5791 -11.7803z" />
    <glyph glyph-name="uniF125" unicode="&#xf125;" 
d="M256 448c141.384 0 256 -114.616 256 -256s-114.616 -256 -256 -256s-256 114.616 -256 256s114.616 256 256 256zM75.8115 149.985l3.12305 19.6758l-3.12305 20.0146c-0.112305 0.824219 -0.710938 1.40234 -1.43848 1.40234
c-0.75293 0 -1.34668 -0.583008 -1.44336 -1.41309l-2.63184 -20.0039l2.63184 -19.666c0.0966797 -0.829102 0.69043 -1.40723 1.44336 -1.40723c0.727539 0 1.32129 0.573242 1.43848 1.39746zM89.1855 138.015l4.0293 31.6367l-4.02441 32.3477
c-0.12793 0.860352 -0.742188 1.4541 -1.5 1.4541c-0.768555 0 -1.39844 -0.614258 -1.5 -1.4541c0 -0.00488281 -3.54297 -32.3477 -3.54297 -32.3477l3.54297 -31.6318c0.101562 -0.844727 0.737305 -1.45898 1.5 -1.45898c0.757812 0 1.37207 0.599609 1.49512 1.4541z
M103.639 132.664l3.8252 36.9873l-3.81934 38.3789c-0.113281 1.02441 -0.871094 1.7666 -1.80762 1.7666c-0.947266 0 -1.70996 -0.742188 -1.80273 -1.7666l-3.36328 -38.3789l3.36328 -36.9766c0.0927734 -1.0293 0.855469 -1.77148 1.80273 -1.77148
c0.936523 0 1.69434 0.737305 1.80176 1.76074zM118.216 131.492l3.60938 38.1484l-3.60938 39.4395c-0.0976562 1.18262 -1.00391 2.07422 -2.10938 2.07422c-1.11621 0 -2.02734 -0.891602 -2.11523 -2.0791l-3.17871 -39.4346l3.17871 -38.1484
c0.0878906 -1.18262 0.999023 -2.07422 2.11523 -2.07422c1.10547 0 2.01172 0.891602 2.10938 2.07422zM132.905 131.169l3.39941 38.4668l-3.39941 36.5977c-0.0927734 1.35156 -1.13184 2.37109 -2.41699 2.37109c-1.30078 0 -2.33984 -1.02441 -2.42188 -2.38672
l-2.99512 -36.582l2.99512 -38.4668c0.0820312 -1.35156 1.12109 -2.38086 2.42188 -2.38086c1.28027 0 2.31934 1.02441 2.41699 2.38086zM147.712 131.159l3.18945 38.4609l-3.18945 59.5156c-0.0869141 1.51562 -1.28516 2.70312 -2.72852 2.70312
c-1.4541 0 -2.65234 -1.1875 -2.72461 -2.70312l-2.81543 -59.5156l2.81543 -38.4609c0.0722656 -1.5 1.27051 -2.68848 2.72461 -2.68848c1.44336 0 2.6416 1.18848 2.72852 2.69824v-0.00976562zM162.637 131.41l2.96973 38.2051l-2.97461 73.1289
c-0.0820312 1.68457 -1.41797 3.00586 -3.03613 3.00586c-1.63379 0 -2.96484 -1.31641 -3.03613 -3.00586l-2.63184 -73.1289l2.63672 -38.2207c0.0712891 -1.66895 1.40332 -2.99023 3.03613 -2.99023c1.62305 0 2.9541 1.31641 3.03613 3.00586zM177.674 131.794
l2.76562 37.8213l-2.76562 79.2324c-0.0712891 1.8584 -1.53516 3.3125 -3.33789 3.3125c-1.81738 0 -3.28223 -1.4541 -3.34375 -3.31836l-2.45215 -79.2314l2.45215 -37.832c0.0615234 -1.84277 1.52637 -3.29688 3.34375 -3.29688
c1.79688 0 3.26172 1.44922 3.33789 3.3125zM192.824 132.024l2.56055 37.5752l-2.56055 81.9053c-0.0615234 2.03711 -1.66406 3.62988 -3.64551 3.62988c-1.99121 0 -3.59375 -1.59277 -3.65039 -3.62988l-2.26855 -81.8994l2.27344 -37.5967
c0.0517578 -2.01172 1.6543 -3.60449 3.64551 -3.60449c1.98145 0 3.5791 1.59277 3.64551 3.62012v0zM208.098 132.352l2.34961 37.248l-2.34961 79.8164c-0.0566406 2.20605 -1.79785 3.93164 -3.95312 3.93164c-2.17578 0 -3.91113 -1.72559 -3.96289 -3.93164
l-2.08887 -79.8164l2.09375 -37.2373c0.046875 -2.19141 1.78711 -3.92188 3.95801 -3.92188c2.15527 0 3.89648 1.73047 3.95312 3.9375v-0.0263672zM223.482 132.588l2.13574 37.0068l-2.13574 76.9072c-0.0507812 2.37598 -1.91992 4.24023 -4.25977 4.24023
c-2.34473 0 -4.21875 -1.86426 -4.26465 -4.25l-1.9043 -76.8975l1.9043 -37.002c0.0410156 -2.35547 1.91992 -4.21875 4.26465 -4.21875c2.33984 0 4.20898 1.86328 4.25977 4.24414v-0.0302734zM238.986 132.849l1.92969 36.7305l-1.92969 91.5156
c-0.0458984 2.50879 -2.09375 4.55176 -4.57227 4.55176c-2.4834 0 -4.53613 -2.04297 -4.57227 -4.55762l-1.72559 -91.4785c0 -0.0566406 1.72559 -36.7871 1.72559 -36.7871c0.0410156 -2.4834 2.08887 -4.52637 4.57227 -4.52637
c2.47852 0 4.52637 2.04297 4.57227 4.55176zM254.418 133.351l2.1709 36.2285l-2.1709 99.8145c-0.0361328 2.67285 -2.22168 4.85938 -4.87402 4.85938c-2.66309 0 -4.84863 -2.18652 -4.88477 -4.86914l-1.99707 -99.8047l2.00195 -36.2236
c0.03125 -2.64746 2.22266 -4.82812 4.87988 -4.82812c2.65234 0 4.83789 2.18066 4.87402 4.86426v-0.0410156zM386.196 128.199c24.4688 0 44.3037 19.835 44.3037 44.3086s-19.835 44.3086 -44.3037 44.3086c-6.07227 0 -11.8633 -1.2334 -17.1367 -3.44043
c-3.52734 39.9258 -37.0127 71.25 -77.8545 71.25c-9.99902 0 -19.7373 -1.96582 -28.3447 -5.29395c-3.34277 -1.29004 -4.2334 -2.62207 -4.26465 -5.20703v-140.616c0.0361328 -2.71289 2.14062 -4.9707 4.78711 -5.2373
c0.118164 -0.0107422 122.025 -0.0722656 122.813 -0.0722656z" />
    <glyph glyph-name="uniF126" unicode="&#xf126;" 
d="M256 448c141.384 0 256 -114.616 256 -256s-114.616 -256 -256 -256s-256 114.616 -256 256s114.616 256 256 256zM368.497 92.2012c2.17578 6.92188 -0.476562 15.2422 -6.78906 18.8418c-9.13965 5.22168 -18.3662 10.3877 -27.9453 14.7148
c-36.2344 16.373 -74.5068 23.0293 -119.184 23.0088c-13.0811 0.0976562 -31.1602 -1.33105 -49.0957 -4.13184c-12.3232 -1.9248 -24.5967 -4.30078 -36.7715 -7.03516c-8.38672 -1.87891 -13.2871 -11.1924 -11.1514 -19.7061
c2.02246 -8.07422 9.80469 -13.0049 18.2217 -11.2285c18.6826 3.94238 37.458 7.24512 56.5146 8.81152c21.5039 1.77148 42.9775 1.67969 64.3789 -1.10059c31.7031 -4.12207 61.4346 -14.0449 88.8828 -30.6328c2.23242 -1.34668 5.04883 -2.16602 7.65527 -2.35547
c6.98828 -0.511719 13.1631 4.07031 15.2832 10.8135zM398.694 160.107c1.65918 8.23828 -2.05859 17.418 -9.54883 21.54c-10.9307 6.02148 -21.8779 12.1602 -33.3008 17.1416c-44.3799 19.3535 -91.0996 27.5508 -145.704 28.042
c-7.30176 -0.527344 -20.9775 -1.21289 -34.5859 -2.57031c-18.5293 -1.84277 -36.7256 -5.62695 -54.5381 -11.0898c-10.3271 -3.16895 -16.0869 -14.3613 -13.0508 -24.75c3.02051 -10.332 13.3271 -16.1738 23.8379 -13.0811
c41.5078 12.2158 83.7275 14.3662 126.465 9.07715c39.6484 -4.91016 77.2197 -16.1895 111.651 -36.9404c3.7168 -2.2373 7.80273 -3.35352 12.165 -2.65234c8.77539 1.41309 14.9814 7.18359 16.6094 15.2832zM432.107 236.508
c1.93066 9.97949 -2.38574 20.3779 -10.7881 25.3857c-16.3887 9.79395 -33.751 17.5146 -51.7734 23.7207c-48.0664 16.5576 -97.7451 23.0088 -157.537 23.4648c-9.40527 -0.675781 -27.96 -1.59277 -46.4229 -3.45117
c-19.584 -1.97656 -38.9072 -5.73926 -57.7539 -11.5713c-12.7227 -3.93652 -19.6045 -17.1055 -15.8105 -29.7881c3.65039 -12.2061 16.251 -18.8105 29.1074 -15.0273c27.3711 8.05371 55.4443 11.5977 83.835 12.6318
c30.3564 1.10547 60.5801 -0.620117 90.5781 -5.69922c36.1006 -6.11328 70.8447 -16.1689 102.682 -34.8418c4.65918 -2.7334 9.73242 -3.73242 15.0625 -2.81543c9.64648 1.66406 17.0449 8.81152 18.8213 17.9912z" />
    <glyph glyph-name="uniF127" unicode="&#xf127;" 
d="M256 448c141.384 0 256 -114.616 256 -256s-114.616 -256 -256 -256s-256 114.616 -256 256s114.616 256 256 256zM338.191 321.552c-25.9326 26.0859 -67.9834 26.0859 -93.9316 -0.00585938l-103.353 -103.972
c-0.988281 -0.634766 -1.91992 -1.38184 -2.79004 -2.25293c-6.49219 -6.52246 -6.49219 -17.1055 0 -23.6182c6.48145 -6.52832 16.9932 -6.52832 23.9512 -0.0712891l105.672 106.291c12.3086 12.3848 31.877 13.0146 44.918 1.89941l1.57129 -1.82324
c6.50293 -6.52246 16.999 -6.52246 23.4912 0c6.38965 6.43652 6.68164 17.0195 0.470703 23.5527zM103.362 156.201c25.9385 -26.0967 68.0088 -26.0967 93.9268 0l105.195 106.368c6.49219 6.52246 6.49219 17.1055 0 23.6133c-6.48145 6.5332 -16.998 6.5332 -23.4805 0
c-0.865234 -0.860352 -1.61719 -1.8125 -2.24707 -2.81152l-102.948 -103.547c-12.9688 -13.0557 -33.9912 -13.0557 -46.9609 0c-12.9785 13.0361 -12.9785 34.1973 0 47.248l100.204 101.263c-12.959 13.0518 -34.002 13.0518 -46.9707 0l-76.7188 -77.6445
c-25.9375 -26.1016 -25.9375 -68.3926 0 -94.4893zM175.99 83.2256c26.0811 -23.9561 66.5283 -23.2598 91.75 2.10938l105.195 106.373c6.48242 6.5127 6.48242 17.0957 0 23.6191c-6.49219 6.5127 -16.9883 6.5127 -23.4805 0
c-0.860352 -0.880859 -1.61719 -1.82324 -2.25781 -2.82129l-102.938 -103.553c-12.9688 -13.0449 -34.002 -13.0449 -46.9707 0l-0.470703 0.0673828c-6.48242 6.52246 -16.9883 6.52246 -23.4805 0c-6.48242 -6.50781 -6.48242 -17.0957 0 -23.6035
c0.833984 -0.834961 1.70996 -1.56152 2.65234 -2.19141zM408.638 156.201c25.9326 26.0908 25.9326 68.3877 0.00488281 94.4893c-25.9326 26.0811 -67.9932 26.0811 -93.9316 0l-103.362 -103.967c-0.978516 -0.650391 -1.91992 -1.39746 -2.78027 -2.26758
c-6.49219 -6.50781 -6.49219 -17.1016 0 -23.6143c6.48145 -6.52246 16.9932 -6.52246 23.9512 -0.0761719l105.667 106.307c12.9688 13.0459 34.002 13.0459 46.96 0c12.9902 -13.0508 12.9902 -34.2119 0 -47.248l-100.198 -101.273
c12.9795 -13.04 34.002 -13.04 46.9707 0z" />
    <glyph glyph-name="uniF128" unicode="&#xf128;" 
d="M256 448c141.384 0 256 -114.616 256 -256s-114.616 -256 -256 -256s-256 114.616 -256 256s114.616 256 256 256zM346.911 63.8975v45.6963c-14.5107 -9.52832 -29.0918 -14.29 -43.7607 -14.29c-8.25879 0 -15.5498 1.91992 -21.9805 5.75
c-4.82812 2.84668 -9.25684 7.7666 -11.0283 12.498c-1.79199 4.77637 -1.56152 14.458 -1.56152 31.2568v74.2715h66.959v51.6914h-66.959v66.9902h-41.2012c-1.83789 -14.9307 -5.2168 -27.2539 -10.1377 -36.9209c-4.91992 -9.66602 -11.4072 -17.9453 -19.5371 -24.8574
c-8.10059 -6.90137 -21.2998 -12.2012 -32.6709 -15.8818v-41.0215h39.3525v-101.576c0 -13.25 1.38672 -23.3828 4.15723 -30.3311c2.78027 -6.96777 7.75098 -13.5576 14.9502 -19.7578c7.16797 -6.13867 15.8516 -10.9316 26.0303 -14.2998
c10.1729 -3.33301 17.9912 -4.99219 31.2217 -4.99219c11.6475 0 22.4971 1.18262 32.5479 3.51172c10.04 2.36035 21.248 6.46191 33.6182 12.2627z" />
    <glyph glyph-name="uniF129" unicode="&#xf129;" 
d="M256 448c141.384 0 256 -114.616 256 -256s-114.616 -256 -256 -256s-256 114.616 -256 256s114.616 256 256 256zM392.53 250.594c12.7275 9.18457 23.7822 20.6641 32.5117 33.7305c-11.6836 -5.18164 -24.2432 -8.68359 -37.4219 -10.2607
c13.4502 8.05859 23.792 20.833 28.6514 36.0498c-12.5898 -7.46973 -26.5322 -12.8926 -41.3799 -15.8154c-11.8789 12.6719 -28.8203 20.582 -47.5596 20.582c-35.9834 0 -65.1729 -29.1738 -65.168 -65.1719c0 -5.10547 0.579102 -10.0762 1.7002 -14.8535
c-54.1592 2.71875 -102.18 28.6719 -134.318 68.0908c-5.61133 -9.61523 -8.82129 -20.8184 -8.82129 -32.7578c0 -22.6104 11.499 -42.5576 28.9893 -54.2412c-10.6807 0.342773 -20.7305 3.27148 -29.5215 8.15625v-0.819336
c0 -31.5703 22.4609 -57.9072 52.2695 -63.8926c-5.47266 -1.49023 -11.2227 -2.28809 -17.1719 -2.28809c-4.2041 0 -8.28418 0.414062 -12.2627 1.17188c8.29395 -25.8867 32.3633 -44.7285 60.8818 -45.25c-22.3135 -17.4805 -50.4014 -27.8945 -80.9316 -27.8945
c-5.25879 0 -10.4502 0.3125 -15.5498 0.90625c28.8408 -18.4883 63.0889 -29.2705 99.8916 -29.2705c119.859 0 185.4 99.292 185.4 185.4c0 2.81543 -0.0722656 5.62695 -0.189453 8.42773z" />
    <glyph glyph-name="uniF12A" unicode="&#xf12a;" 
d="M256 448c141.384 0 256 -114.616 256 -256s-114.616 -256 -256 -256s-256 114.616 -256 256s114.616 256 256 256zM387.641 248.842c1.67871 36.2861 -11.8789 54.8662 -40.6992 55.7158c-38.8398 1.25 -65.126 -20.4492 -78.8887 -65.1211
c7.08105 2.9082 13.9727 4.3877 20.6895 4.3877c14.1729 0 20.4287 -7.91504 18.7598 -23.7871c-0.829102 -9.61035 -7.09082 -23.5879 -18.7598 -41.9482c-11.709 -18.3809 -20.4697 -27.5605 -26.2803 -27.5605c-7.5625 0 -14.418 14.1973 -20.7002 42.5674
c-2.09961 8.36133 -5.86816 29.6299 -11.249 63.8721c-5.05859 31.7236 -18.4014 46.5508 -40.0996 44.4727c-9.18066 -0.860352 -22.9277 -9.21094 -41.2881 -25.0527c-13.3887 -12.1143 -26.9512 -24.2324 -40.7393 -36.3311l13.1377 -16.8916
c12.5283 8.76562 19.8701 13.1387 21.8984 13.1387c9.62012 0 18.6104 -15.0322 26.9512 -45.0615c7.50098 -27.5605 15.0371 -55.1113 22.5791 -82.6523c11.208 -30.0488 25.0166 -45.0918 41.2773 -45.0918c26.291 0 58.4805 24.6328 96.4404 73.8818
c36.7314 47.1602 55.6904 84.3008 56.9707 111.462z" />
    <glyph glyph-name="uniF12B" unicode="&#xf12b;" 
d="M317.015 210.196c27.6689 -0.28125 51.0059 -23.8848 51.5693 -52.1621c0.619141 -30.8428 -23.4395 -55.793 -53.1406 -55.1064c-29.6035 0.685547 -50.3965 23.3057 -50.4375 54.8809c-0.0410156 31.7188 20.7871 52.7051 52.0088 52.3877zM256 448
c141.384 0 256 -114.616 256 -256s-114.616 -256 -256 -256s-256 114.616 -256 256s114.616 256 256 256zM397.865 116.111c22.876 44.0322 6.65039 96.21 -35.6045 118.318c-47.002 24.5967 -104.684 8.33008 -128.107 -36.7725
c-4.75684 -9.15918 -8.85254 -17.5869 -19.3281 -21.4268c-26.8857 -9.86621 -55.2197 1.72559 -66.3652 27.5459c-11.582 26.8184 -0.179688 60.8408 25.1494 71.7363c20.0137 8.61133 38.9629 4.43359 56.8057 -7.79297c8.23828 -5.64258 12.708 -3.30762 16.1592 1.03418
c3.18945 4.01953 11.1309 14.2285 11.7754 15.0684c4.14746 5.41211 -1.25879 10.2549 -6.64551 14.0801c-30.085 21.3652 -62.6689 23.4697 -95.7539 9.625c-40.5557 -16.9678 -60.7178 -62.1104 -48.8037 -105.175c11.9707 -43.2744 51.21 -69.8213 96.2246 -64.1738
c12.585 1.58203 21.6123 4.34668 27.2441 -12.9746c11.6738 -35.9014 45.6699 -57.2314 88.6016 -57.4971c32.4502 1.11133 61.5371 15.4678 78.6484 48.4043z" />
    <glyph glyph-name="uniF12C" unicode="&#xf12c;" 
d="M256 448c141.384 0 256 -114.616 256 -256s-114.616 -256 -256 -256s-256 114.616 -256 256s114.616 256 256 256zM408.172 293.975c2.14453 2.45801 1.83789 6.44629 -0.615234 7.36816c-7.98633 -0.614258 -16.8857 -0.921875 -28.5488 -0.921875
c-9.52344 0 -17.8076 0.3125 -29.4805 0.921875c-2.45312 -1.23438 -2.75977 -4.60254 -0.302734 -7.36816l8.89844 -0.614258c6.45215 -0.301758 10.1377 -2.76465 10.1377 -7.06543c0 -3.68652 -5.2168 -16.8857 -9.21094 -27.9395
c-2.15527 -5.52441 -18.4209 -46.3672 -24.5605 -61.1025c-8.91895 -21.8057 -18.124 -43.2949 -27.6426 -64.7832c-10.127 23.332 -20.874 46.3672 -31.3193 70.0059c-1.53613 3.68652 -2.14453 6.14355 -2.14453 7.37305c0 1.22852 1.22852 4.30078 2.76465 7.36719
c4.61328 10.7471 17.4951 37.458 23.9463 48.8242c6.75781 12.585 12.2822 26.4043 25.1846 27.3262l8.89941 0.614258c1.84766 2.46289 1.53516 6.44531 -0.609375 7.36719c-7.07129 -0.614258 -19.3486 -0.921875 -29.4814 -0.921875
c-11.3613 0 -20.5771 0.3125 -28.8662 0.921875c-2.14551 -0.921875 -2.75977 -4.30078 -0.609375 -7.36719l9.21094 -0.614258c9.81445 -0.615234 11.3564 -3.98926 0.296875 -30.0908c-6.74805 -16.5781 -12.2725 -28.2471 -18.1143 -40.2178
c-8.59668 19.0312 -17.1885 38.375 -23.6396 53.417c-5.83105 13.8145 -5.52441 15.9648 6.45117 16.8857l7.97754 0.609375c1.84277 2.46289 1.53613 6.44629 -0.614258 7.36816c-7.06055 -0.614258 -18.4219 -0.921875 -33.7725 -0.921875
c-12.2822 0 -23.9453 0.3125 -32.8545 0.921875c-2.45801 -1.22949 -2.76465 -4.91016 -0.619141 -7.36816l7.37207 -0.614258c10.4395 -0.916016 15.043 -7.36719 19.6455 -16.8857c11.6738 -24.5605 23.0352 -49.126 33.7822 -73.6865
c1.53027 -3.68652 2.45703 -6.44629 2.45703 -7.98242s-2.15039 -6.75879 -4.91504 -12.5898c-7.98242 -17.1934 -16.2715 -34.3916 -23.6387 -49.7412c-17.8076 37.7656 -35.9219 76.1494 -53.1201 114.529c-9.52344 21.7959 -15.9639 37.458 -15.9639 41.1445
c0 2.75977 3.68066 4.60254 10.1318 5.2168l7.06543 0.620117c1.84375 2.15039 2.14551 6.44531 -0.608398 7.36719c-10.7529 -0.614258 -26.415 -0.921875 -35.001 -0.921875c-9.52344 0 -23.332 0.3125 -31.6309 0.921875
c-2.45312 -1.2334 -2.76465 -5.5293 -0.916992 -7.36719l7.36816 -0.614258c12.8916 -1.22949 16.5781 -9.51855 22.4102 -22.1084c19.958 -42.6758 38.9941 -85.3555 58.6494 -128.036c3.98828 -8.90918 15.959 -36.541 21.1816 -49.4385
c1.53613 -0.614258 3.06641 -0.921875 4.60254 -0.921875s2.77051 0.307617 3.68652 0.921875c8.89844 25.4873 27.3252 64.793 38.3799 87.2041c9.51758 -21.4941 27.3145 -59.8682 37.1504 -87.2041c1.22852 -0.614258 2.75977 -0.921875 4.2959 -0.921875
s2.75977 0.307617 3.68652 0.921875c12.5898 32.8545 24.8672 62.9453 38.3789 94.2637l22.4102 51.8916c18.4219 42.6748 21.1865 51.8857 36.5371 53.4219z" />
    <glyph glyph-name="uniF12D" unicode="&#xf12d;" 
d="M344.878 335.201c47.5498 -29.7725 79.2578 -82.5801 79.2578 -142.73c0 -60.1494 -31.708 -113.039 -79.2578 -142.729c-24.9189 -15.5088 -54.2002 -24.7197 -85.5605 -25.3389c-1.0957 0 -2.20605 -0.0722656 -3.31738 -0.0722656
c-36.2646 0 -69.9082 11.5615 -97.3877 31.0781c-42.7773 30.5312 -70.7373 80.5791 -70.7373 137.062c0 56.4844 27.96 106.532 70.7373 137.053c27.4795 19.5176 61.1172 31.0781 97.3877 31.0781c1.10547 0 2.2168 -0.0615234 3.31738 -0.0615234
c31.3604 -0.629883 60.6416 -9.84082 85.5605 -25.3389zM158.612 311.321c-12.252 -10.04 -22.9121 -21.9385 -31.5645 -35.2969c10.168 0.0712891 20.7617 0.199219 31.5596 0.481445c7.75195 0.209961 15.5137 0.481445 23.332 0.900391
c0.757812 0 1.44824 -0.69043 1.44824 -1.53027v-9.20117c0 -0.900391 -0.69043 -1.5918 -1.44824 -1.5918h-17.8584c-1.94043 0 -2.77051 -1.18262 -2.0791 -3.25098l55.7871 -164.332l33.9922 102.441l-22.5586 61.752
c-0.830078 2.27832 -1.80762 3.38965 -5.25879 3.38965h-15.6514c-0.830078 0 -1.44922 0.691406 -1.44922 1.5918v9.20117c0 0.839844 0.619141 1.53027 1.44922 1.53027c16.9619 -0.756836 33.9912 -1.10547 51.0107 -0.966797
c12.1904 0.0664062 24.4375 0.418945 36.6182 0.966797c0.829102 0 1.53027 -0.69043 1.53027 -1.53027v-9.20117c0 -0.900391 -0.701172 -1.5918 -1.53027 -1.5918h-15.498c-3.12402 0 -4.0918 -1.39258 -3.26172 -3.88086l54.9678 -161.828l12.7285 38.6201
l7.48047 22.7686c15.2217 46.249 3.31738 66.7295 -7.48047 84.5879c-6.58398 10.7314 -12.7334 20.4902 -12.252 34.4111c0.28125 11.0029 5.33008 18.335 12.252 22.2822c4.50098 2.56055 9.75879 3.73828 15.0889 3.59961
c-4.7666 4.37207 -9.83008 8.44824 -15.0889 12.1807c-24.2998 17.2393 -53.7188 27.6172 -85.5605 28.3086h-3.31738c-36.9609 0 -70.8096 -13.0156 -97.3877 -34.8115zM158.612 73.6201c9.6875 -7.96094 20.2754 -14.6787 31.6318 -20.0703l-31.6318 86.4512
l-42.501 116.152c-8.85742 -19.3838 -13.7676 -40.9805 -13.7676 -63.6826c0 -47.9023 21.9395 -90.6797 56.2686 -118.851zM259.317 38.7998c16.8916 0.40918 33.0244 3.46094 48.1074 8.85742l-48.1074 131.45l-0.680664 2.0127l-47.2783 -135.741
c14.1211 -4.29102 29.1436 -6.5791 44.6416 -6.5791h3.31738zM391.188 265.631c0.829102 -22.8408 -6.08789 -51.292 -13.501 -72.2637l-32.8096 -92.959l-15.1602 -42.7773c5.26855 2.8418 10.3115 6.02051 15.1602 9.48242
c39.1787 27.8164 64.7891 73.6455 64.7891 125.357c0 26.4404 -6.71777 51.4307 -18.4785 73.1602zM256 448c141.384 0 256 -114.616 256 -256s-114.616 -256 -256 -256s-256 114.616 -256 256s114.616 256 256 256zM344.878 37.3506
c53.6426 30.8682 89.8506 88.8115 89.8506 155.12c0 66.3096 -36.208 124.253 -89.8506 155.121c-25.2617 14.4688 -54.4814 22.9785 -85.5605 23.5977h-3.31738c-35.9219 0 -69.3604 -10.5879 -97.3877 -28.8506c-48.9424 -31.8418 -81.3311 -87.0811 -81.3311 -149.862
c0 -62.792 32.3887 -118.021 81.3311 -149.863c28.0273 -18.2832 61.4658 -28.8711 97.3877 -28.8711h3.31738c31.0791 0.629883 60.2988 9.13867 85.5605 23.6084z" />
    <glyph glyph-name="uniF12E" unicode="&#xf12e;" 
d="M256 448c141.384 0 256 -114.616 256 -256s-114.616 -256 -256 -256s-256 114.616 -256 256s114.616 256 256 256zM251.679 367.037c-34.9131 -0.865234 -66.0684 -10.9561 -93.4805 -30.5869c28.2725 7.51172 60.8711 -3.4502 97.8066 -33.1719
c36.9209 29.7217 69.5244 40.6836 97.792 33.1719c-27.4023 19.6309 -58.5625 29.7217 -93.4707 30.5869h-8.64746zM120.12 92.9482c0.568359 12.4004 2.58105 25.1084 5.77051 37.791c12.1084 47.0322 42.6904 94.3564 91.4482 141.957
c-23.0762 25.0928 -46.7402 42.4141 -70.9688 51.3486c-0.859375 0.296875 -1.73047 0.573242 -2.58984 0.865234c-2.90332 -2.58594 -5.77051 -5.18652 -8.38184 -7.78711v-0.291992c-9.82031 -9.51367 -18.1758 -19.8965 -25.0986 -30.8584
c-15.8662 -25.3906 -24.2275 -53.9492 -25.0879 -85.4014v-8.66309c0.860352 -37.5098 12.4014 -70.4004 34.9082 -98.96zM376.606 75.6328c2.01758 2.02246 4.31641 4.33105 6.33887 6.64062c-0.28125 1.15723 -0.860352 2.29883 -1.15234 3.45605
c-0.291992 1.44922 -0.870117 2.60059 -1.1416 3.75781c-0.875 2.58594 -2.02734 5.19727 -2.89746 7.78711c-0.282227 0.291992 -0.282227 0.866211 -0.282227 1.15234c-17.8887 43.2793 -51.3584 84.8281 -100.7 124.923v0.296875h-0.291016
c-6.63086 5.4834 -13.2715 10.6758 -20.4707 15.8623c-7.21875 -5.18164 -13.8594 -10.3789 -20.1875 -15.8623c-52.8027 -42.4141 -87.4189 -87.1318 -104.161 -133.867c-0.568359 -1.15723 -1.14746 -2.60059 -1.43945 -4.0498
c-0.28125 -1.15723 -0.870117 -2.29883 -1.15137 -3.45605c2.0166 -2.30957 4.31641 -4.61816 6.33789 -6.64062c32.3125 -32.5996 70.9785 -49.3369 116.28 -50.1914h8.64844c45.291 0.854492 83.9521 17.5918 116.27 50.1914zM426.798 191.913v8.6582
c-0.870117 31.4521 -9.23633 60.0107 -25.0977 85.4014c-6.93262 10.957 -15.2939 21.3447 -24.8115 30.8584l-0.291992 0.291992c-2.60156 2.5957 -5.4834 5.19629 -8.37109 7.78711c-0.860352 -0.291992 -1.73047 -0.568359 -2.60156 -0.865234
c-24.2178 -8.93457 -47.877 -26.2559 -70.9678 -51.3486l0.301758 -0.287109c48.7529 -47.6104 79.334 -94.9248 91.7402 -141.941c3.16895 -12.4004 4.89941 -24.8164 5.77051 -37.2227c22.21 28.5703 33.459 61.4561 34.3291 98.668z" />
    <glyph glyph-name="uniF12F" unicode="&#xf12f;" 
d="M256 448c141.384 0 256 -114.616 256 -256s-114.616 -256 -256 -256s-256 114.616 -256 256s114.616 256 256 256zM256 44.7588c83.7734 0 151.675 67.917 151.675 151.681c0 83.7676 -67.9014 151.68 -151.675 151.68s-151.68 -67.9062 -151.68 -151.68
c0 -83.7637 67.9062 -151.681 151.68 -151.681zM149.351 176.681v39.5166h213.294v-39.5166h-0.44043c-4.42871 -54.8242 -50.2373 -97.9453 -106.214 -97.9453c-55.9668 0 -101.771 43.1211 -106.189 97.9453h-0.450195zM161.28 205.21v-24.3203h186.88v24.3203h-186.88z
M294.718 279.388c10.9053 0 19.7471 -8.8418 19.7471 -19.7471c0 -10.9062 -8.8418 -19.748 -19.7471 -19.748c-10.9062 0 -19.748 8.8418 -19.748 19.748c0 10.9053 8.8418 19.7471 19.748 19.7471zM219.663 279.388c10.9062 0 19.748 -8.8418 19.748 -19.7471
c0 -10.9062 -8.8418 -19.748 -19.748 -19.748c-10.9053 0 -19.748 8.8418 -19.748 19.748c0 10.9053 8.84277 19.7471 19.748 19.7471z" />
    <glyph glyph-name="uniF130" unicode="&#xf130;" 
d="M234.578 113.397v59.5508h16.7012v-93.2295h-16.292v9.27148c-3.43066 -7.82812 -8.44824 -11.75 -15.0684 -11.75c-10.6592 0 -16 7.49023 -16.0049 22.4766v73.2314h16.0312v-60.9121c0 -5.00293 0.291016 -8.57129 0.870117 -10.7217
c1.01855 -3.71191 3.07715 -5.56055 6.16992 -5.56055c3.33301 0 5.55957 2.0127 6.6709 6.04199c0.609375 2.32422 0.921875 6.17969 0.921875 11.6016zM258.826 263.813c-4.41895 0 -7.06055 4.17773 -7.9209 12.5488
c-0.12793 1.01855 -0.189453 7.32617 -0.189453 18.9385v8.6582c0 8.53027 0.174805 13.7881 0.492188 15.79c1.03906 6.26172 3.61914 9.39062 7.75098 9.39062c4.25977 0 6.8916 -3.55859 7.93164 -10.6807c0.240234 -1.94043 0.368164 -7.66504 0.368164 -17.1621
v-9.14941c0 -10.1426 -0.102539 -16 -0.3125 -17.5723c-0.988281 -7.17285 -3.69141 -10.7617 -8.12012 -10.7617zM296.305 175.427c8.4375 0 13.957 -6.00586 16.5684 -18.0381c1.33105 -6.06738 1.98145 -16.5684 1.98145 -31.498
c0 -14.4893 -0.72168 -24.8574 -2.16113 -31.0889c-2.7334 -11.6992 -8.31445 -17.5615 -16.7422 -17.5615c-7.02441 0 -11.8779 4.0752 -14.5664 12.2168v-9.73828h-15.7793v124.14h16.6094v-38.7998c2.76953 6.91699 7.46973 10.3682 14.0898 10.3682zM297.764 107.771
c0.209961 1.7666 0.317383 7.87012 0.317383 18.2891c0 10.793 -0.0917969 16.9521 -0.250977 18.4521c-0.879883 8.54004 -3.34863 12.8203 -7.42871 12.8203c-4.54199 0 -7.33203 -4.79199 -8.37109 -14.3506c-0.209961 -1.93066 -0.3125 -8.78125 -0.307617 -20.5518
c0 -9.07812 0.179688 -14.7412 0.558594 -17.0088c1.08008 -6.91699 3.77832 -10.3887 8.12012 -10.3887c4.04492 0 6.49219 4.25 7.3623 12.7383zM136.95 183.368v20.4902h58.7617v-20.4902h-20.4902v-103.649h-17.7715v103.649h-20.5zM350.674 175.437
c8.85254 0 15.3193 -3.51172 19.4102 -10.542c3.30273 -5.69336 4.95117 -17.1621 4.95117 -34.4521v-7.08105h-32.5996c-0.117188 -1.01855 -0.189453 -3.01074 -0.189453 -5.95996c0 -6.9375 0.291992 -11.8887 0.871094 -14.8379
c1.19727 -6.07715 3.68066 -9.11816 7.43945 -9.11816c5.58008 0 8.37109 6.08789 8.37109 18.2676h15.6211c0 -0.429688 0.0205078 -1.03418 0.0615234 -1.8125c0.0410156 -0.772461 0.0605469 -1.38184 0.0605469 -1.8125c0 -10.7412 -1.98145 -18.5596 -5.94922 -23.4795
c-3.95801 -4.90039 -10.1172 -7.36816 -18.4678 -7.36816c-8.64258 0 -14.8633 2.97949 -18.6523 8.93945c-3.03027 4.73145 -4.9502 11.6328 -5.78516 20.7109c-0.369141 3.9834 -0.547852 11.4736 -0.547852 22.4814c0 8.85742 0.178711 15.1709 0.547852 18.9287
c0.74707 7.61816 2.38086 13.4199 4.89941 17.3877c4.1377 6.49707 10.7881 9.74805 19.958 9.74805zM358.374 138.153v3.94238c0 5.36035 -0.373047 9.16406 -1.12109 11.4121c-1.14648 3.58887 -3.48633 5.3916 -6.99902 5.3916
c-2.93359 0 -5.0332 -1.24414 -6.26172 -3.70215c-1.49023 -3.0459 -2.11426 -7.41895 -1.86328 -13.1016l0.0820312 -1.29102c0.0615234 -0.911133 0.0810547 -1.80176 0.0810547 -2.65137h16.082zM256 448c141.384 0 256 -114.616 256 -256s-114.616 -256 -256 -256
s-256 114.616 -256 256s114.616 256 256 256zM296.617 343.429v-73.6406c0 -15.0684 5.37109 -22.6094 16.1025 -22.6094c6.65039 0 11.6992 3.94238 15.1602 11.8066v-9.30859h16.3682v93.752h-16.7881v-59.8779c0 -5.45801 -0.3125 -9.33887 -0.931641 -11.6689
c-1.12207 -4.05469 -3.36426 -6.08203 -6.71289 -6.08203c-3.10254 0 -5.1709 1.86328 -6.2002 5.60156c-0.578125 2.15527 -0.870117 5.74902 -0.870117 10.7773v61.25h-16.1279zM237.281 330.854c-2.46289 -6.74805 -3.69141 -18.2021 -3.69141 -34.3506
c0 -16.1377 1.2334 -27.5557 3.69141 -34.2578c3.65039 -10.04 10.8701 -15.0674 21.6777 -15.0674c10.7988 0 18.0488 5.00195 21.7402 14.9912c2.46191 6.70215 3.68066 18.1504 3.68066 34.3398c0 16.21 -1.21875 27.6582 -3.68066 34.3447
c-3.69141 10.0508 -10.9414 15.0684 -21.7402 15.0684c-10.8076 0 -18.0273 -5.01758 -21.6777 -15.0684zM179.297 374.518h-19.8291l25.1953 -71.9053v-52.9355h18.0381v52.9307l24.7295 71.9102h-19.2715l-14.3418 -46.9609zM403.876 89.8613v95.9072
c0 27.418 -22.2256 49.6387 -49.6387 49.6387h-196.479c-27.4082 0 -49.6387 -22.2207 -49.6387 -49.6387v-95.9072c0 -27.418 22.2256 -49.6484 49.6387 -49.6484h196.479c27.4072 0 49.6387 22.2305 49.6387 49.6484z" />
    <glyph glyph-name="uniF131" unicode="&#xf131;" 
d="M256 448c141.384 0 256 -114.616 256 -256s-114.616 -256 -256 -256s-256 114.616 -256 256s114.616 256 256 256zM316.989 34.3965c36.9307 -4.36816 51.7783 40.3457 45.6299 69.3447c-16.4561 -13.2764 -39.4092 -12.9385 -60.4414 -7.16797
c-19.7998 6.61523 -51.2979 27.1514 -51.2979 27.1514v-0.00976562c-14.1309 8.8418 -30.7197 16.1436 -47.3906 15.3906c0 7.53125 0.214844 7.82324 4.79199 13.1377c6.29785 7.2959 12.5908 14.6025 18.8828 21.9033c19.7988 22.9834 39.5986 45.9619 59.3926 68.9404
c16.8496 19.5537 33.6943 39.1074 50.5439 58.665c1.60742 1.87402 7.55176 6.67676 7.85449 9.2627c1.02344 8.87793 2.04785 17.7607 3.07715 26.6387c0.716797 6.1543 -5.66309 4.67969 -5.66309 4.67969l-0.00976562 0.03125
c-27.3262 -5.56543 -55.4043 -8.46875 -83.252 -7.18848c-15.498 0.711914 -31.7998 2.19141 -46.3457 7.9873c-0.527344 0.209961 -3.60938 1.78125 -6.49707 3.36914c-4.18848 2.1709 -6.99902 0.767578 -8.48438 -0.49707
c-1.17188 -1.46387 -2.41602 -2.87207 -3.52246 -4.38281c-7.32617 -10.0039 -14.1309 -21.7646 -15.375 -34.3242c-0.276367 -2.80078 -0.625 -8.71484 0.911133 -12.2676l-0.0107422 -0.00488281s0.169922 -0.430664 0.629883 -1.12207
c0.0820312 -0.107422 0.143555 -0.224609 0.225586 -0.327148c3.48633 -4.81836 19.5381 -19.3281 82.2217 -6.74805c-40.7852 -48.21 -81.5762 -96.415 -122.367 -144.62c-0.00585938 -0.00488281 -0.00585938 -0.00488281 -0.00585938 -0.00976562
c-2.27832 -2.69336 -2.64648 -7.08105 -2.64648 -7.08105v-25.6514c0 -0.3125 -0.03125 -2.20117 -0.0361328 -4.22363c0.793945 -4.30566 2.70312 -5.1709 3.79883 -5.31445h9.62109c23.8994 0 44.2773 -0.655273 66.3545 -12.0322
c16.9629 -8.73438 30.9766 -22.7227 47.5039 -32.4502c15.6719 -9.22656 33.5566 -18.9033 51.9062 -21.0791z" />
    <glyph glyph-name="uniF132" unicode="&#xf132;" 
d="M256 448c141.384 0 256 -114.616 256 -256s-114.616 -256 -256 -256s-256 114.616 -256 256s114.616 256 256 256zM289.997 34.4834c35.8906 0 72.0889 26.7617 72.0889 50.9902c0 8.18652 -4.41309 15.4258 -8.81152 17.6279
c-15.1084 -8.18164 -28.6514 -12.5898 -40.9287 -12.5898c-15.7393 0 -24.5508 6.92676 -74.5986 80.5889c38.083 32.7373 60.4414 54.4561 89.3906 95.6973c24.8828 16.3691 34.6309 30.8486 34.6309 44.0684c0 11.3301 -9.74805 26.4395 -22.3379 26.4395
c-5.99023 0 -10.7061 -5.67285 -16.999 -15.4316c-46.2793 17.6279 -67.998 23.6084 -91.9189 23.6084c-22.3535 0 -40.6123 -19.5078 -40.6123 -42.1787c0 -12.9131 5.35059 -20.1426 13.5322 -22.6611c10.7012 6.29199 19.5225 8.81152 25.1807 8.81152
c14.8018 0 37.7803 -6.61035 66.1094 -15.1094c-14.1621 -20.459 -50.9902 -58.2402 -77.4404 -79.0215c-10.0703 8.50879 -16.373 11.6475 -25.4922 11.6475c-29.2812 0 -41.8818 -33.9912 -41.8818 -55.0752c0 -21.4023 5.03809 -27.3818 12.9082 -27.3818
c8.82129 0 23.3008 7.54688 32.4297 15.7383c48.1592 -90.9775 61.7012 -105.769 94.751 -105.769z" />
  </font>
</defs>
</svg>
