<?xml version="1.0" standalone="no"?>
<!DOCTYPE svg PUBLIC "-//W3C//DTD SVG 1.1//EN" "http://www.w3.org/Graphics/SVG/1.1/DTD/svg11.dtd" >
<svg>
<metadata>
Created by FontForge 20110222 at Wed Jan 15 20:43:12 2014
 By Orthosie Webhosting
Copyright (c) 2009 by The Entente (AS &#38; EH). All rights reserved. wf-rip
</metadata>
<defs>
<font id="ApercuLight" horiz-adv-x="566" >
  <font-face 
    font-family="ApercuLight"
    font-weight="300"
    font-stretch="normal"
    units-per-em="1000"
    panose-1="2 0 5 6 3 0 0 2 0 4"
    ascent="800"
    descent="-200"
    x-height="504"
    cap-height="700"
    bbox="-74 -229 2397 947"
    underline-thickness="50"
    underline-position="-50"
    unicode-range="U+0020-FB02"
  />
<missing-glyph horiz-adv-x="619" 
d="M518 0h-417v700h417v-700zM454 58v584h-289v-584h289z" />
    <glyph glyph-name="uniFB01" unicode="fi" horiz-adv-x="538" 
d="M130 446h-80v58h80v16q0 87 56 137q57 51 140 51q63 0 110 -29l-13 -57q-49 28 -102 28q-58 0 -93.5 -33.5t-35.5 -86.5v-26h264v-504h-62v446h-202v-446h-62v446z" />
    <glyph glyph-name="uniFB02" unicode="fl" horiz-adv-x="581" 
d="M128 446h-78v58h78v32q0 172 156 172h209v-708h-62v650h-152q-89 0 -89 -104v-42h122v-58h-122v-446h-62v446z" />
    <glyph glyph-name=".notdef" horiz-adv-x="619" 
d="M518 0h-417v700h417v-700zM454 58v584h-289v-584h289z" />
    <glyph glyph-name=".null" horiz-adv-x="0" 
 />
    <glyph glyph-name="nonmarkingreturn" horiz-adv-x="333" 
 />
    <glyph glyph-name="space" unicode=" " horiz-adv-x="252" 
 />
    <glyph glyph-name="exclam" unicode="!" horiz-adv-x="325" 
d="M145 184l-22 516h84l-22 -516h-40zM125 13q-15 16 -15 40t15 39q16 16 40 16t39 -16q16 -15 16 -39t-16 -40q-15 -15 -39 -15t-40 15z" />
    <glyph glyph-name="quotedbl" unicode="&#x22;" horiz-adv-x="418" 
d="M159 480h-47l-21 228h89zM306 480h-47l-21 228h89z" />
    <glyph glyph-name="numbersign" unicode="#" horiz-adv-x="717" 
d="M239 432h-122v54h134l43 214h56l-43 -214h159l44 214h56l-44 -214h118v-54h-129l-33 -164h122v-54h-134l-43 -214h-56l43 214h-159l-44 -214h-56l44 214h-118v54h129zM455 432h-160l-33 -164h160z" />
    <glyph glyph-name="dollar" unicode="$" horiz-adv-x="506" 
d="M418 600l-54 -34q-42 80 -116 80q-44 0 -70.5 -30t-26.5 -72q0 -81 108 -131q36 -16 89 -43q48 -23 78 -67.5t30 -105.5q0 -84 -47 -139.5t-123 -65.5v-82h-60v82q-72 9 -120 59.5t-64 129.5l57 34q23 -80 58.5 -120.5t98.5 -40.5q60 0 95.5 37t35.5 104q0 85 -107 135
q-95 44 -130 72q-66 55 -65 134q0 69 40 115q41 48 101 55v84h60v-85q48 -6 76 -30t56 -75z" />
    <glyph glyph-name="percent" unicode="%" horiz-adv-x="844" 
d="M106 434q-44 47 -44 114q0 66 44 113q45 47 113 47t112 -47q45 -47 45 -113q0 -68 -45 -114q-43 -46 -112 -46q-68 0 -113 46zM144 624q-28 -29 -28 -76t28 -76q28 -30 75 -30t75 30q28 29 28 76t-28 76q-28 30 -75 30t-75 -30zM512 38q-44 47 -44 114q0 66 44 113
q45 47 113 47t112 -47q45 -47 45 -113q0 -68 -45 -114q-43 -46 -112 -46q-68 0 -113 46zM550 228q-28 -29 -28 -76t28 -76q28 -30 75 -30t75 30q28 29 28 76t-28 76q-28 30 -75 30t-75 -30zM130 9l542 715l42 -33l-542 -715z" />
    <glyph glyph-name="ampersand" unicode="&#x26;" horiz-adv-x="657" 
d="M283 -8q-93 0 -148.5 54t-55.5 148q0 74 38.5 129t100.5 87q-66 90 -66 149q0 68 43 108.5t108 40.5q69 0 111 -38.5t42 -101.5q0 -102 -148 -178l163 -209q25 48 53 128l43 -50q-28 -77 -57 -128l103 -131h-72l-65 82q-73 -90 -193 -90zM283 50q95 0 155 80l-184 235
q-113 -62 -113 -173q0 -64 39.5 -103t102.5 -39zM303 654q-42 0 -65.5 -26t-23.5 -73q0 -46 58 -120q65 32 93.5 61t28.5 67q0 40 -24 65.5t-67 25.5z" />
    <glyph glyph-name="quotesingle" unicode="'" horiz-adv-x="271" 
d="M159 480h-47l-21 228h89z" />
    <glyph glyph-name="parenleft" unicode="(" horiz-adv-x="281" 
d="M180 750h66q-106 -172 -106 -400t106 -400h-66q-109 176 -109 400t109 400z" />
    <glyph glyph-name="parenright" unicode=")" horiz-adv-x="281" 
d="M35 750h66q109 -176 109 -400t-109 -400h-66q106 172 106 400t-106 400z" />
    <glyph glyph-name="asterisk" unicode="*" horiz-adv-x="492" 
d="M218 708h56v-146l139 46l18 -54l-139 -47l86 -116l-46 -34l-86 117l-86 -117l-46 34l86 116l-139 47l18 54l139 -46v146z" />
    <glyph glyph-name="plus" unicode="+" horiz-adv-x="545" 
d="M302 344h177v-56h-177v-177h-56v177h-177v56h177v176h56v-176z" />
    <glyph glyph-name="comma" unicode="," horiz-adv-x="279" 
d="M112 -77h-46l50 165h92z" />
    <glyph glyph-name="hyphen" unicode="-" horiz-adv-x="471" 
d="M400 289h-329v56h329v-56z" />
    <glyph glyph-name="period" unicode="." horiz-adv-x="284" 
d="M91 49q0 22 14.5 36.5t36.5 14.5t36.5 -14.5t14.5 -36.5t-14.5 -36.5t-36.5 -14.5t-36.5 14t-14.5 37z" />
    <glyph glyph-name="slash" unicode="/" horiz-adv-x="527" 
d="M17 -50l436 800h66l-436 -800h-66z" />
    <glyph glyph-name="zero" unicode="0" horiz-adv-x="616" 
d="M128 611q61 97 180 97q118 0 179 -97q62 -97 62 -261t-62 -262q-62 -96 -179 -96q-118 0 -180 96q-61 97 -61 262q0 166 61 261zM438 569q-47 83 -130 83t-130 -83t-47 -219t47 -219t130 -83t130 83t47 219t-47 219z" />
    <glyph glyph-name="one" unicode="1" horiz-adv-x="346" 
d="M71 597l162 103h16v-700h-62v594l-116 -73v76z" />
    <glyph glyph-name="two" unicode="2" horiz-adv-x="569" 
d="M489 0h-414v23l255 330q49 62 63 94q15 33 15 77q0 59 -33 93.5t-91 34.5q-53 0 -90 -39t-46 -102l-58 11q7 80 61 134q52 52 133 52q85 0 136.5 -50t51.5 -136q0 -80 -85 -189l-214 -277h316v-56z" />
    <glyph glyph-name="three" unicode="3" horiz-adv-x="573" 
d="M63 192l62 9q8 -71 48 -112t105 -41q75 0 116 44t41 122q0 81 -41 124t-116 43q-34 0 -62 -18l-30 39l181 242h-269v56h366v-17l-189 -251q9 3 26 3q81 0 139 -60q59 -59 59 -161q0 -100 -60 -161q-58 -61 -161 -61q-88 0 -146.5 53.5t-68.5 146.5z" />
    <glyph glyph-name="four" unicode="4" horiz-adv-x="582" 
d="M430 0h-62v161h-309v17l295 522h76v-483h93v-56h-93v-161zM368 612l-221 -395h221v395z" />
    <glyph glyph-name="five" unicode="5" horiz-adv-x="563" 
d="M72 184l61 11q19 -147 144 -147q74 0 113 47.5t39 132.5q0 88 -39.5 134t-112.5 46q-89 0 -144 -94l-44 10l36 376h327v-56h-271l-25 -238q54 58 127 58q97 0 153.5 -63.5t56.5 -172.5q0 -106 -58 -171q-59 -65 -158 -65q-85 0 -139 49t-66 143z" />
    <glyph glyph-name="six" unicode="6" horiz-adv-x="574" 
d="M296 448q96 0 157 -66q61 -64 61 -162t-61 -163q-62 -65 -157 -65t-157 65q-61 65 -61 163q0 64 37 129l207 359h65l-156 -277q23 17 65 17zM142 220q0 -75 43 -124q43 -48 111 -48q66 0 110 48q44 50 44 124q0 78 -42.5 125t-111.5 47t-111.5 -47t-42.5 -125z" />
    <glyph glyph-name="seven" unicode="7" horiz-adv-x="478" 
d="M447 680l-277 -680h-65l268 644h-314v56h388v-20z" />
    <glyph glyph-name="eight" unicode="8" horiz-adv-x="578" 
d="M475 526q0 -50 -24 -89t-64 -60q49 -18 80.5 -68t31.5 -113q0 -96 -61 -150q-60 -54 -149 -54t-150 54q-60 54 -60 150q0 63 31.5 113t80.5 68q-40 21 -64 60t-24 89q0 82 51 131q52 51 135 51t134 -51q52 -49 52 -131zM289 48q67 0 106.5 39.5t39.5 108.5
q0 68 -39.5 108t-106.5 40t-106.5 -40t-39.5 -108t39.5 -108t106.5 -40zM379 617q-35 35 -90 35t-90 -35q-34 -34 -34 -91q0 -58 34 -92t90 -34t90 34t34 92q0 57 -34 91z" />
    <glyph glyph-name="nine" unicode="9" horiz-adv-x="567" 
d="M289 252q-95 0 -157 65q-61 65 -61 163t61 162q62 66 157 66t157 -66q61 -64 61 -162q0 -64 -37 -129l-207 -359h-65l156 277q-23 -17 -65 -17zM443 480q0 74 -44 123q-43 49 -110 49q-68 0 -111 -49q-43 -47 -43 -123q0 -78 42.5 -125t111.5 -47t111.5 47t42.5 125z" />
    <glyph glyph-name="colon" unicode=":" horiz-adv-x="298" 
d="M98 49q0 33 32 46.5t55 -10.5q24 -23 10.5 -55t-46.5 -32q-23 0 -37 14t-14 37zM98 415q0 33 32 46.5t55 -10.5q24 -23 10.5 -55t-46.5 -32q-23 0 -37 14t-14 37z" />
    <glyph glyph-name="semicolon" unicode=";" horiz-adv-x="298" 
d="M98 415q0 33 32 46.5t55 -10.5q24 -23 10.5 -55t-46.5 -32q-23 0 -37 14t-14 37zM107 -77h-46l50 165h92z" />
    <glyph glyph-name="less" unicode="&#x3c;" horiz-adv-x="452" 
d="M390 96l-334 180v68l334 180v-62l-283 -152l283 -152v-62z" />
    <glyph glyph-name="equal" unicode="=" horiz-adv-x="591" 
d="M489 365h-387v56h387v-56zM489 199h-387v56h387v-56z" />
    <glyph glyph-name="greater" unicode="&#x3e;" horiz-adv-x="452" 
d="M62 524l334 -180v-68l-334 -180v62l283 152l-283 152v62z" />
    <glyph glyph-name="question" unicode="?" horiz-adv-x="438" 
d="M188 13q-15 16 -15 40t15 39q16 16 40 16t39 -16q16 -15 16 -39t-16 -40q-15 -15 -39 -15t-40 15zM303 321l50 -19q-29 -105 -127 -105q-54 0 -89 32t-35 89q0 80 88 128l82 45q52 28 52 74q0 40 -25.5 62.5t-72.5 22.5q-88 0 -113 -102l-63 11q12 71 59.5 110t123.5 39
q68 0 111.5 -39t43.5 -101q0 -78 -87 -124l-72 -39q-35 -19 -50 -39t-15 -50q0 -28 16 -44.5t44 -16.5q58 0 79 66z" />
    <glyph glyph-name="at" unicode="@" horiz-adv-x="862" 
d="M545 453l14 56h54l-24 -265q0 -4 -0.5 -7t-0.5 -5.5t-0.5 -4.5t-0.5 -3v-2v-1q0 -57 55 -57q49 0 75.5 50t26.5 138q0 147 -79.5 228.5t-223.5 81.5q-62 0 -119.5 -24.5t-104 -69t-74 -114t-27.5 -153.5q0 -158 91 -249q91 -90 233 -90q67 0 123 15.5t123 53.5l22 -50
q-77 -41 -136 -58t-132 -17q-170 0 -279 106q-110 107 -110 289q0 99 33 181t90 133q115 103 272 103q162 0 263 -95q100 -94 100 -271q0 -118 -47 -181t-124 -63q-41 0 -70 22t-38 56q-51 -78 -135 -78q-80 0 -124.5 50.5t-44.5 136.5q0 95 58 157q58 64 149 64
q81 0 112 -63zM426 460q-60 0 -97 -47.5t-37 -120.5q0 -62 29 -95t81 -33q60 0 95 50q36 49 36 118q0 60 -28 94t-79 34z" />
    <glyph glyph-name="A" unicode="A" horiz-adv-x="584" 
d="M10 0l253 700h58l253 -700h-68l-70 199h-288l-70 -199h-68zM415 261l-123 349l-123 -349h246z" />
    <glyph glyph-name="B" unicode="B" horiz-adv-x="616" 
d="M101 0v700h225q92 0 143.5 -47.5t51.5 -132.5q0 -44 -25.5 -82.5t-62.5 -54.5q124 -46 124 -181q0 -92 -58 -147t-157 -55h-241zM329 342h-162v-280h162q80 0 119.5 33t39.5 107t-39.5 107t-119.5 33zM326 638h-159v-234h159q127 0 127 117t-127 117z" />
    <glyph glyph-name="C" unicode="C" horiz-adv-x="680" 
d="M567 211l65 -19q-27 -94 -96.5 -147t-167.5 -53q-128 0 -219 93q-90 93 -90 265q0 86 25.5 156.5t70.5 113.5q91 88 213 88q98 0 167.5 -53t96.5 -147l-65 -19q-20 76 -71 116.5t-128 40.5q-108 0 -174 -78t-66 -218t66 -218t174 -78q77 0 128 40.5t71 116.5z" />
    <glyph glyph-name="D" unicode="D" horiz-adv-x="662" 
d="M101 0v700h184q138 0 228 -95t90 -255q0 -162 -90 -256t-228 -94h-184zM286 638h-119v-576h119q106 0 176 73q72 73 72 215t-72 215q-70 73 -176 73z" />
    <glyph glyph-name="E" unicode="E" horiz-adv-x="568" 
d="M101 0v700h395v-62h-329v-234h269v-62h-269v-280h339v-62h-405z" />
    <glyph glyph-name="F" unicode="F" horiz-adv-x="563" 
d="M101 0v700h402v-62h-336v-242h276v-62h-276v-334h-66z" />
    <glyph glyph-name="G" unicode="G" horiz-adv-x="708" 
d="M640 0h-58l-8 108q-28 -54 -83.5 -85t-124.5 -31q-127 0 -217 94t-90 264t90 264t217 94q102 0 173 -54t97 -150l-65 -18q-24 77 -76.5 118.5t-128.5 41.5q-107 0 -173 -78q-65 -79 -65 -218t65 -218q66 -78 173 -78q100 0 153.5 60.5t54.5 176.5h-162v62h228v-353z" />
    <glyph glyph-name="H" unicode="H" horiz-adv-x="690" 
d="M523 403v297h66v-700h-66v341h-356v-341h-66v700h66v-297h356z" />
    <glyph glyph-name="I" unicode="I" horiz-adv-x="268" 
d="M101 700h66v-700h-66v700z" />
    <glyph glyph-name="J" unicode="J" horiz-adv-x="497" 
d="M344 198v502h66v-495q0 -100 -58 -157q-58 -56 -139 -56q-89 0 -138 51q-50 53 -60 128l68 15q19 -132 130 -132q60 0 95.5 37t35.5 107z" />
    <glyph glyph-name="K" unicode="K" horiz-adv-x="565" 
d="M237 386l312 -386h-81l-301 371v-371h-66v700h66v-299l273 299h84z" />
    <glyph glyph-name="L" unicode="L" horiz-adv-x="515" 
d="M101 0v700h66v-638h328v-62h-394z" />
    <glyph glyph-name="M" unicode="M" horiz-adv-x="782" 
d="M101 0v700h82l208 -527l208 527h82v-700h-66v572l-203 -508h-42l-203 508v-572h-66z" />
    <glyph glyph-name="N" unicode="N" horiz-adv-x="693" 
d="M526 105v595h66v-700h-78l-347 593v-593h-66v700h78z" />
    <glyph glyph-name="O" unicode="O" horiz-adv-x="732" 
d="M148 609q90 99 218 99t217 -99q90 -98 90 -259t-90 -260q-89 -98 -217 -98t-218 98q-89 100 -89 260q0 161 89 259zM536 568q-68 78 -170 78q-104 0 -171 -78q-67 -76 -67 -218t67 -219q68 -77 171 -77q102 0 170 77q68 79 68 219q0 141 -68 218z" />
    <glyph glyph-name="P" unicode="P" horiz-adv-x="578" 
d="M339 314h-172v-314h-66v700h238q94 0 148 -51.5t54 -141.5t-54 -141.5t-148 -51.5zM167 376h173q66 0 99 34.5t33 96.5t-33 96.5t-99 34.5h-173v-262z" />
    <glyph glyph-name="Q" unicode="Q" horiz-adv-x="732" 
d="M673 350q0 -150 -79 -247l67 -66l-45 -45l-66 66q-80 -66 -184 -66q-128 0 -218 98q-89 100 -89 260q0 161 89 259q90 99 218 99t217 -99q90 -98 90 -259zM506 101l-74 75l45 45l72 -73q55 79 55 202q0 141 -68 218q-68 78 -170 78q-104 0 -171 -78q-67 -76 -67 -218
t67 -219q68 -77 171 -77q81 0 140 47z" />
    <glyph glyph-name="R" unicode="R" horiz-adv-x="636" 
d="M591 0h-74l-219 346h-131v-346h-66v700h225q96 0 148 -45t52 -132q0 -75 -40 -119.5t-113 -54.5zM322 638h-155v-230h155q137 0 137 115t-137 115z" />
    <glyph glyph-name="S" unicode="S" horiz-adv-x="506" 
d="M418 600l-54 -34q-42 80 -116 80q-44 0 -70.5 -30t-26.5 -72q0 -81 108 -131q36 -16 89 -43q48 -23 78 -67.5t30 -105.5q0 -93 -57 -149q-56 -56 -143 -56q-83 0 -139.5 51t-74.5 138l57 34q23 -80 58.5 -120.5t98.5 -40.5q60 0 95.5 37t35.5 104q0 85 -107 135
q-95 44 -130 72q-66 55 -65 134q0 75 47 124q48 48 116 48q49 0 82 -16q33 -15 49 -33t39 -59z" />
    <glyph glyph-name="T" unicode="T" horiz-adv-x="516" 
d="M225 638h-209v62h484v-62h-209v-638h-66v638z" />
    <glyph glyph-name="U" unicode="U" horiz-adv-x="654" 
d="M87 224v476h66v-482q0 -72 46 -118t128 -46t128 46t46 118v482h66v-476q0 -110 -70 -171q-68 -61 -170 -61q-101 0 -171 61q-69 61 -69 171z" />
    <glyph glyph-name="V" unicode="V" horiz-adv-x="574" 
d="M287 94l212 606h68l-245 -700h-70l-245 700h68z" />
    <glyph glyph-name="W" unicode="W" horiz-adv-x="899" 
d="M640 102l159 598h68l-192 -700h-67l-159 524l-158 -524h-67l-192 700h68l159 -598l161 524h59z" />
    <glyph glyph-name="X" unicode="X" 
d="M283 445l150 255h69l-185 -314l228 -386h-69l-193 328l-193 -328h-69l228 386l-185 314h69z" />
    <glyph glyph-name="Y" unicode="Y" horiz-adv-x="500" 
d="M217 0v304l-211 396h77l167 -331l167 331h77l-211 -396v-304h-66z" />
    <glyph glyph-name="Z" unicode="Z" horiz-adv-x="548" 
d="M400 638h-340v62h428v-32l-348 -606h355v-62h-447v32z" />
    <glyph glyph-name="bracketleft" unicode="[" horiz-adv-x="322" 
d="M280 -50h-179v800h179v-56h-119v-688h119v-56z" />
    <glyph glyph-name="backslash" unicode="\" horiz-adv-x="527" 
d="M444 -50l-436 800h66l436 -800h-66z" />
    <glyph glyph-name="bracketright" unicode="]" horiz-adv-x="322" 
d="M42 750h179v-800h-179v56h119v688h-119v56z" />
    <glyph glyph-name="asciicircum" unicode="^" horiz-adv-x="520" 
d="M52 429l184 271h48l184 -271h-69l-139 213l-139 -213h-69z" />
    <glyph glyph-name="underscore" unicode="_" horiz-adv-x="475" 
d="M442 -56h-409v56h409v-56z" />
    <glyph glyph-name="grave" unicode="`" horiz-adv-x="209" 
d="M21 700h93l70 -140h-49z" />
    <glyph glyph-name="a" unicode="a" horiz-adv-x="506" 
d="M122 145q0 -45 26 -70t72 -25q58 0 105 45q48 45 48 138v19h-82q-83 0 -126 -27.5t-43 -79.5zM435 334v-334h-47l-15 78q-50 -86 -159 -86q-72 0 -114.5 39t-42.5 114q0 81 61 123t171 42h84v22q0 122 -116 122q-92 0 -120 -94l-60 14q10 62 60 100t120 38q77 0 127 -48
q51 -47 51 -130z" />
    <glyph glyph-name="b" unicode="b" horiz-adv-x="598" 
d="M96 0v708h64v-275q27 35 71 57t86 22q106 0 165 -74q60 -74 60 -186q0 -114 -60 -187q-58 -73 -165 -73q-47 0 -91.5 21.5t-65.5 52.5v-66h-64zM477 252q0 89 -43 145q-44 57 -120 57t-120 -57q-42 -57 -42 -145q0 -91 43 -146.5t119 -55.5q77 0 120 55.5t43 146.5z" />
    <glyph glyph-name="c" unicode="c" horiz-adv-x="528" 
d="M426 153l56 -22q-52 -139 -203 -139q-106 0 -164 76q-59 77 -59 184q0 106 59 183t164 77q151 0 203 -139l-56 -22q-42 103 -147 103q-78 0 -118 -58q-40 -56 -40 -144q0 -87 40 -145q41 -57 118 -57q105 0 147 103z" />
    <glyph glyph-name="d" unicode="d" horiz-adv-x="598" 
d="M438 433v275h64v-708h-64v66q-21 -31 -65.5 -52.5t-91.5 -21.5q-106 0 -166 73q-59 74 -59 187q0 112 59 186q60 74 166 74q42 0 86 -22t71 -57zM121 252q0 -91 43 -146.5t120 -55.5q76 0 119 55.5t43 146.5q0 89 -43 145q-42 57 -119 57q-76 0 -120 -57
q-43 -56 -43 -145z" />
    <glyph glyph-name="e" unicode="e" horiz-adv-x="552" 
d="M501 280v-28h-380q0 -91 43 -146.5t116 -55.5q57 0 92 25t63 83l55 -27q-38 -74 -87.5 -106.5t-122.5 -32.5q-101 0 -162 73q-62 74 -62 187q0 112 62 186t162 74q98 0 159 -64q62 -65 62 -168zM280 454q-60 0 -101 -39.5t-54 -104.5h312q-9 68 -50 106t-107 38z" />
    <glyph glyph-name="f" unicode="f" horiz-adv-x="359" 
d="M130 446h-80v58h80v32q0 172 156 172q37 0 60 -13l-13 -57q-26 12 -52 12q-89 0 -89 -104v-42h122v-58h-122v-446h-62v446z" />
    <glyph glyph-name="g" unicode="g" horiz-adv-x="491" 
d="M91 343q0 76 49 122q50 47 122 47q46 0 87 -23l90 51l29 -53l-70 -39q35 -46 35 -105q0 -77 -49 -123t-122 -46q-54 0 -94 24q-41 -18 -41 -56q0 -48 62 -48h130q71 0 111 -33.5t40 -98.5q0 -87 -55 -130.5t-152 -43.5q-96 0 -152 44t-56 122q0 67 52 106q-40 24 -40 82
q0 29 17 53t45 37q-38 47 -38 111zM312 40h-103q-27 0 -49 3q-45 -29 -45 -91q0 -51 38 -79.5t110 -28.5q70 0 108.5 30t38.5 80q0 86 -98 86zM184 427q-31 -31 -31 -84t31 -84t78 -31q46 0 77 31q32 32 32 84t-32 84q-31 31 -77 31q-47 0 -78 -31z" />
    <glyph glyph-name="h" unicode="h" horiz-adv-x="585" 
d="M495 346v-346h-62v338q0 55 -27 85.5t-78 30.5q-72 0 -121 -66q-49 -65 -49 -173v-215h-62v708h62v-314q24 56 73.5 87t106.5 31q74 0 115.5 -43.5t41.5 -122.5z" />
    <glyph glyph-name="i" unicode="i" horiz-adv-x="280" 
d="M104 612q-14 15 -14 37t14 36q15 15 37 15t36 -15q15 -14 15 -36t-15 -37q-14 -14 -36 -14t-37 14zM110 0v504h62v-504h-62z" />
    <glyph glyph-name="j" unicode="j" horiz-adv-x="280" 
d="M110 -55v559h62v-568q0 -128 -125 -148l-14 58q42 12 59.5 34t17.5 65zM104 612q-14 15 -14 37t14 36q15 15 37 15t36 -15q15 -14 15 -36t-15 -37q-14 -14 -36 -14t-37 14z" />
    <glyph glyph-name="k" unicode="k" horiz-adv-x="482" 
d="M96 0v708h62v-427l211 223h78l-218 -231l236 -273h-79l-228 265v-265h-62z" />
    <glyph glyph-name="l" unicode="l" horiz-adv-x="244" 
d="M94 0v708h62v-708h-62z" />
    <glyph glyph-name="m" unicode="m" horiz-adv-x="852" 
d="M762 346v-346h-62v338q0 61 -20.5 88.5t-69.5 27.5q-64 0 -107 -64t-43 -169v-221h-62v338q0 61 -20.5 88.5t-69.5 27.5q-64 0 -107 -64t-43 -169v-221h-62v504h62v-105q24 53 66 83t94 30q115 0 137 -112q27 50 71.5 81t93.5 31q73 0 107.5 -41t34.5 -125z" />
    <glyph glyph-name="n" unicode="n" horiz-adv-x="576" 
d="M486 346v-346h-62v338q0 116 -103 116q-71 0 -117 -64t-46 -169v-221h-62v504h62v-105q27 52 73.5 82.5t99.5 30.5q72 0 113.5 -44t41.5 -122z" />
    <glyph glyph-name="o" unicode="o" horiz-adv-x="584" 
d="M121 70q-65 79 -65 182t65 182q65 78 171 78t171 -78q65 -79 65 -182t-65 -182q-65 -78 -171 -78t-171 78zM166 394q-45 -60 -45 -142t45 -142q46 -60 126 -60t125 60q46 59 46 142t-46 142q-45 60 -125 60t-126 -60z" />
    <glyph glyph-name="p" unicode="p" horiz-adv-x="598" 
d="M160 71v-275h-64v708h64v-66q21 31 65.5 52.5t91.5 21.5q106 0 165 -74q60 -74 60 -186q0 -114 -60 -187q-58 -73 -165 -73q-42 0 -86 22t-71 57zM477 252q0 91 -43 146.5t-120 55.5q-76 0 -119 -55.5t-43 -146.5q0 -88 42 -145q44 -57 120 -57t120 57q43 56 43 145z" />
    <glyph glyph-name="q" unicode="q" horiz-adv-x="598" 
d="M502 504v-708h-64v275q-27 -35 -71 -57t-86 -22q-106 0 -166 73q-59 74 -59 187q0 112 59 186q60 74 166 74q47 0 91.5 -21.5t65.5 -52.5v66h64zM121 252q0 -89 43 -145q44 -57 120 -57q77 0 119 57q43 56 43 145q0 91 -43 146.5t-119 55.5q-77 0 -120 -55.5t-43 -146.5z
" />
    <glyph glyph-name="r" unicode="r" horiz-adv-x="399" 
d="M382 495l-14 -59q-33 18 -71 18q-62 0 -100.5 -69t-38.5 -190v-195h-62v504h62v-90q47 98 148 98q33 0 76 -17z" />
    <glyph glyph-name="s" unicode="s" horiz-adv-x="450" 
d="M230 512q84 0 140 -78l-44 -38q-43 58 -99 58q-33 0 -53.5 -21t-20.5 -55q0 -49 84 -83q37 -15 55 -23.5t46 -26.5t41 -41.5t13 -53.5q0 -73 -42 -115.5t-114 -42.5q-70 0 -116.5 38.5t-65.5 99.5l55 29q20 -55 49 -82t78 -27q44 0 67.5 24t23.5 66q0 58 -84 88
q-80 32 -106 52q-48 37 -48 97t40 97.5t101 37.5z" />
    <glyph glyph-name="t" unicode="t" horiz-adv-x="371" 
d="M116 446h-89v58h89v163l64 41v-204h134v-58h-134v-313q0 -83 70 -83q38 0 63 16l17 -56q-33 -18 -88 -18q-59 0 -92.5 38.5t-33.5 112.5v303z" />
    <glyph glyph-name="u" unicode="u" horiz-adv-x="576" 
d="M90 158v346h62v-338q0 -116 103 -116q70 0 116 64q47 65 47 169v221h62v-504h-62v105q-27 -52 -73.5 -82.5t-99.5 -30.5q-72 0 -113.5 44t-41.5 122z" />
    <glyph glyph-name="v" unicode="v" horiz-adv-x="448" 
d="M224 83l139 421h65l-170 -504h-68l-170 504h65z" />
    <glyph glyph-name="w" unicode="w" horiz-adv-x="718" 
d="M496 88l118 416h65l-151 -504h-64l-105 412l-105 -412h-64l-151 504h65l118 -416l106 416h62z" />
    <glyph glyph-name="x" unicode="x" horiz-adv-x="446" 
d="M189 275l-142 229h69l107 -174l107 174h69l-142 -229l170 -275h-65l-139 220l-139 -220h-65z" />
    <glyph glyph-name="y" unicode="y" horiz-adv-x="452" 
d="M232 96l140 408h65l-250 -708h-62l73 207l-181 501h65z" />
    <glyph glyph-name="z" unicode="z" horiz-adv-x="456" 
d="M313 446h-245v58h327v-34l-254 -412h265v-58h-350v30z" />
    <glyph glyph-name="braceleft" unicode="{" horiz-adv-x="317" 
d="M144 54v183q0 45 -18 65t-61 20v56q43 0 61 20t18 65v183q0 48 26 76t68 28h46v-56h-30q-26 0 -38 -12t-12 -38v-197q0 -41 -15 -63t-48 -34q33 -12 48 -34t15 -63v-197q0 -26 12 -38t38 -12h30v-56h-46q-42 0 -68 28t-26 76z" />
    <glyph glyph-name="bar" unicode="|" horiz-adv-x="262" 
d="M101 -50v800h60v-800h-60z" />
    <glyph glyph-name="braceright" unicode="}" horiz-adv-x="317" 
d="M173 237v-183q0 -48 -26 -76t-68 -28h-46v56h30q26 0 38 12t12 38v197q0 41 15 63t48 34q-33 12 -48 34t-15 63v197q0 26 -12 38t-38 12h-30v56h46q42 0 68 -28t26 -76v-183q0 -45 18 -65t61 -20v-56q-43 0 -61 -20t-18 -65z" />
    <glyph glyph-name="asciitilde" unicode="~" horiz-adv-x="602" 
d="M125 281l-40 39q55 78 122 78q39 0 91 -27t89 -27q53 0 90 45l40 -39q-55 -78 -122 -78q-39 0 -91 27t-89 27q-53 0 -90 -45z" />
    <glyph glyph-name="uni00A0" unicode="&#xa0;" horiz-adv-x="252" 
 />
    <glyph glyph-name="exclamdown" unicode="&#xa1;" horiz-adv-x="325" 
d="M180 310l22 -516h-84l22 516h40zM120 401q-15 16 -15 40t15 39q16 16 40 16t39 -16q16 -15 16 -39t-16 -40q-15 -15 -39 -15t-40 15z" />
    <glyph glyph-name="cent" unicode="&#xa2;" horiz-adv-x="548" 
d="M431 251l56 -22q-47 -123 -171 -138v-141h-60v141q-92 10 -144 85q-51 75 -51 174q0 100 51 173q51 76 144 86v141h60v-141q123 -13 171 -138l-56 -22q-42 103 -147 103q-78 0 -118 -58q-40 -56 -40 -144q0 -87 40 -145q40 -57 118 -57q105 0 147 103z" />
    <glyph glyph-name="sterling" unicode="&#xa3;" horiz-adv-x="530" 
d="M145 335h-84v58h63q-25 63 -25 114q0 93 50 147t134 54q65 0 112.5 -37t72.5 -104l-55 -25q-25 56 -55 82t-75 26q-55 0 -87.5 -38t-32.5 -106q0 -42 23 -113h164v-58h-146q10 -39 10 -78q0 -48 -24 -102q-23 -54 -56 -83q40 22 85 22q35 0 77 -24t61 -24q33 0 53 17
t48 67l47 -27q-32 -61 -65 -86t-81 -25q-39 0 -83 23t-71 23q-31 0 -54 -10t-54 -36l-49 55q110 107 110 212q0 38 -13 76z" />
    <glyph glyph-name="currency" unicode="&#xa4;" horiz-adv-x="546" 
d="M84 63l-55 55l87 67q-38 55 -38 122t38 122l-87 67l55 55l66 -85q52 43 123 43t123 -43l66 85l55 -55l-87 -67q38 -55 38 -122t-38 -122l87 -67l-55 -55l-66 85q-52 -43 -123 -43t-123 43zM172 414q-38 -41 -38 -107t38 -107t101 -41t101 41t38 107t-38 107t-101 41
t-101 -41z" />
    <glyph glyph-name="yen" unicode="&#xa5;" horiz-adv-x="500" 
d="M188 360l-175 340h77l160 -329l160 329h77l-175 -340h132v-56h-161v-87h161v-56h-161v-161h-66v161h-161v56h161v87h-161v56h132z" />
    <glyph glyph-name="brokenbar" unicode="&#xa6;" horiz-adv-x="262" 
d="M101 -50v349h60v-349h-60zM161 750v-349h-60v349h60z" />
    <glyph glyph-name="section" unicode="&#xa7;" horiz-adv-x="535" 
d="M470 212q0 -78 -81 -129q49 -49 49 -114q0 -84 -50 -132q-49 -49 -119 -49q-146 0 -181 146l56 19q32 -107 125 -107q47 0 76 32t29 89q0 48 -41 78q-28 20 -42 28l-59 30q-23 11 -63 34q-55 31 -78 63.5t-23 83.5q0 78 81 129q-49 49 -49 114q0 84 49 132q49 49 120 49
q146 0 181 -146l-56 -19q-32 107 -125 107q-47 0 -76 -32t-29 -89q0 -46 41 -79q23 -16 42 -27q39 -21 59 -31q39 -20 63 -33q55 -31 78 -63.5t23 -83.5zM266 156l73 -35q71 35 71 92q0 46 -51 78q-32 22 -55 33l-32 16l-73 35q-71 -35 -71 -92q0 -42 51 -79q39 -25 55 -33z
" />
    <glyph glyph-name="dieresis" unicode="&#xa8;" horiz-adv-x="294" 
d="M21 650q0 21 14 35.5t35 14.5t35 -14.5t14 -35.5q0 -20 -14 -34t-35 -14t-35 14t-14 34zM175 650q0 21 14 35.5t34 14.5q21 0 35.5 -14.5t14.5 -35.5q0 -20 -14.5 -34t-35.5 -14q-20 0 -34 14t-14 34z" />
    <glyph glyph-name="copyright" unicode="&#xa9;" horiz-adv-x="902" 
d="M181 71q-106 112 -106 279q0 168 106 278q106 112 270 112q163 0 269 -112q107 -112 107 -278t-107 -279q-107 -111 -269 -111q-163 0 -270 111zM224 584q-87 -94 -87 -234t87 -234t227 -94t227 94t87 234t-87 234t-227 94t-227 -94zM565 280l53 -14q-16 -63 -60 -97.5
t-107 -34.5q-74 0 -135 55q-60 56 -60 161q0 106 60 161q61 55 135 55q63 0 107 -34.5t60 -97.5l-53 -14q-30 92 -114 92q-62 0 -99 -42.5t-37 -119.5t37 -119.5t99 -42.5q84 0 114 92z" />
    <glyph glyph-name="ordfeminine" unicode="&#xaa;" horiz-adv-x="430" 
d="M363 564v-264h-37l-10 63q-39 -67 -127 -67q-55 0 -89 32t-34 88q0 63 47.5 96.5t134.5 33.5h66v17q0 93 -91 93q-71 0 -93 -72l-48 12q10 50 48 79t93 29q66 0 103 -34.5t37 -105.5zM122 416q0 -35 19 -53.5t53 -18.5q46 0 83 34t37 107v15h-64q-128 0 -128 -84z" />
    <glyph glyph-name="guillemotleft" unicode="&#xab;" horiz-adv-x="604" 
d="M313 94l-263 195v42l263 195v-68l-198 -148l198 -148v-68zM544 94l-263 195v42l263 195v-68l-198 -148l198 -148v-68z" />
    <glyph glyph-name="logicalnot" unicode="&#xac;" horiz-adv-x="573" 
d="M429 322h-359v58h423v-238h-64v180z" />
    <glyph glyph-name="uni00AD" unicode="&#xad;" horiz-adv-x="471" 
d="M400 289h-329v56h329v-56z" />
    <glyph glyph-name="registered" unicode="&#xae;" horiz-adv-x="902" 
d="M181 71q-106 112 -106 279q0 168 106 278q106 112 270 112q163 0 269 -112q107 -112 107 -278t-107 -279q-107 -111 -269 -111q-163 0 -270 111zM224 584q-87 -94 -87 -234t87 -234t227 -94t227 94t87 234t-87 234t-227 94t-227 -94zM623 137h-62l-126 182h-61v-182h-59
v426h144q60 0 96.5 -33.5t36.5 -88.5q0 -45 -27 -77.5t-69 -40.5zM459 509h-85v-136h85q36 0 55 18t19 50q0 68 -74 68z" />
    <glyph glyph-name="overscore" unicode="&#xaf;" horiz-adv-x="271" 
d="M256 644h-241v56h241v-56z" />
    <glyph glyph-name="degree" unicode="&#xb0;" horiz-adv-x="352" 
d="M97 513q-30 31 -30 80q0 47 30 79q32 32 79 32q48 0 78 -32q31 -31 31 -79q0 -49 -31 -80q-30 -31 -78 -31t-79 31zM132 638q-17 -17 -17 -45t17 -46q17 -17 44 -17t44 17q17 18 17 46t-17 45q-17 18 -44 18t-44 -18z" />
    <glyph glyph-name="plusminus" unicode="&#xb1;" horiz-adv-x="541" 
d="M299 426h177v-56h-177v-177h-56v177h-177v56h177v176h56v-176zM476 0h-410v56h410v-56z" />
    <glyph glyph-name="uni00B2" unicode="&#xb2;" horiz-adv-x="381" 
d="M316 300h-251v19l147 183q40 49 40 90q0 29 -16 45.5t-46 16.5q-26 0 -43 -20.5t-21 -55.5l-54 14q5 49 37.5 80.5t80.5 31.5q54 0 85 -30.5t31 -81.5q0 -56 -39 -105l-111 -137h160v-50z" />
    <glyph glyph-name="uni00B3" unicode="&#xb3;" horiz-adv-x="385" 
d="M65 413l54 8q4 -36 23.5 -56.5t51.5 -20.5q35 0 53.5 23t18.5 61t-18.5 59.5t-53.5 21.5q-19 0 -35 -10l-26 35l89 118h-135v48h213v-17l-100 -135q8 2 18 2q45 0 73.5 -33t28.5 -89q0 -58 -33.5 -95t-92.5 -37q-54 0 -89 31.5t-40 85.5z" />
    <glyph glyph-name="acute" unicode="&#xb4;" horiz-adv-x="209" 
d="M74 560h-49l70 140h93z" />
    <glyph glyph-name="mu" unicode="&#xb5;" horiz-adv-x="576" 
d="M152 -204h-62v708h62v-338q0 -116 103 -116q70 0 116 64q47 65 47 169v221h62v-504h-62v105q-27 -52 -73.5 -82.5t-99.5 -30.5q-55 0 -93 26v-222z" />
    <glyph glyph-name="mu" unicode="&#x3bc;" horiz-adv-x="576" 
d="M152 -204h-62v708h62v-338q0 -116 103 -116q70 0 116 64q47 65 47 169v221h62v-504h-62v105q-27 -52 -73.5 -82.5t-99.5 -30.5q-55 0 -93 26v-222z" />
    <glyph glyph-name="paragraph" unicode="&#xb6;" horiz-adv-x="651" 
d="M234 700h349v-62h-58v-842h-66v842h-159v-842h-66v558q-71 0 -123 50q-50 52 -50 123q0 72 50 122q51 51 123 51z" />
    <glyph glyph-name="middot" unicode="&#xb7;" horiz-adv-x="284" 
d="M91 349q0 22 14.5 36.5t36.5 14.5t36.5 -14.5t14.5 -36.5t-14.5 -36.5t-36.5 -14.5t-36.5 14t-14.5 37z" />
    <glyph glyph-name="cedilla" unicode="&#xb8;" horiz-adv-x="175" 
d="M109 -60h55l-81 -154l-72 31z" />
    <glyph glyph-name="uni00B9" unicode="&#xb9;" horiz-adv-x="284" 
d="M60 641l119 59h16v-400h-50v326l-85 -41v56z" />
    <glyph glyph-name="ordmasculine" unicode="&#xba;" horiz-adv-x="512" 
d="M122 357q-51 61 -51 143t51 143t134 61t134 -61t51 -143t-51 -143t-134 -61t-134 61zM159 610q-34 -46 -34 -110t34 -110t97 -46q62 0 96 46q35 47 35 110t-35 110q-34 46 -96 46q-63 0 -97 -46z" />
    <glyph glyph-name="guillemotright" unicode="&#xbb;" horiz-adv-x="604" 
d="M291 526l263 -195v-42l-263 -195v68l198 148l-198 148v68zM60 526l263 -195v-42l-263 -195v68l198 148l-198 148v68z" />
    <glyph glyph-name="onequarter" unicode="&#xbc;" horiz-adv-x="790" 
d="M95 9l542 715l42 -33l-542 -715zM80 641l119 59h16v-400h-50v326l-85 -41v56zM649 0h-50v83h-171v17l162 300h59v-269h52v-48h-52v-83zM599 326l-102 -195h102v195z" />
    <glyph glyph-name="onehalf" unicode="&#xbd;" horiz-adv-x="857" 
d="M95 9l542 715l42 -33l-542 -715zM80 641l119 59h16v-400h-50v326l-85 -41v56zM753 0h-251v19l147 183q40 49 40 90q0 29 -16 45.5t-46 16.5q-26 0 -43 -20.5t-21 -55.5l-54 14q5 49 37.5 80.5t80.5 31.5q54 0 85 -30.5t31 -81.5q0 -56 -39 -105l-111 -137h160v-50z" />
    <glyph glyph-name="threequarters" unicode="&#xbe;" horiz-adv-x="840" 
d="M167 9l542 715l42 -33l-542 -715zM65 413l54 8q4 -36 23.5 -56.5t51.5 -20.5q35 0 53.5 23t18.5 61t-18.5 59.5t-53.5 21.5q-19 0 -35 -10l-26 35l89 118h-135v48h213v-17l-100 -135q8 2 18 2q45 0 73.5 -33t28.5 -89q0 -58 -33.5 -95t-92.5 -37q-54 0 -89 31.5t-40 85.5
zM694 0h-50v83h-171v17l162 300h59v-269h52v-48h-52v-83zM644 326l-102 -195h102v195z" />
    <glyph glyph-name="questiondown" unicode="&#xbf;" horiz-adv-x="438" 
d="M249 480q16 -15 16 -39t-16 -40q-15 -15 -39 -15t-40 15q-15 16 -15 40t15 39q16 16 40 16t39 -16zM135 173l-50 19q29 105 127 105q54 0 89 -32t35 -89q0 -80 -88 -128l-82 -45q-52 -28 -52 -74q0 -40 25.5 -62.5t72.5 -22.5q88 0 113 102l63 -11q-12 -71 -59.5 -110
t-123.5 -39q-68 0 -111.5 39t-43.5 101q0 77 87 124l72 39q35 19 50 39t15 50q0 28 -16 44.5t-44 16.5q-58 0 -79 -66z" />
    <glyph glyph-name="Agrave" unicode="&#xc0;" horiz-adv-x="584" 
d="M10 0l253 700h58l253 -700h-68l-70 199h-288l-70 -199h-68zM415 261l-123 349l-123 -349h246zM183 896h93l70 -140h-49z" />
    <glyph glyph-name="Aacute" unicode="&#xc1;" horiz-adv-x="584" 
d="M10 0l253 700h58l253 -700h-68l-70 199h-288l-70 -199h-68zM415 261l-123 349l-123 -349h246zM285 756h-49l70 140h93z" />
    <glyph glyph-name="Acircumflex" unicode="&#xc2;" horiz-adv-x="584" 
d="M10 0l253 700h58l253 -700h-68l-70 199h-288l-70 -199h-68zM415 261l-123 349l-123 -349h246zM209 762h-72l144 151h22l144 -151h-72l-83 89z" />
    <glyph glyph-name="Atilde" unicode="&#xc3;" horiz-adv-x="584" 
d="M10 0l253 700h58l253 -700h-68l-70 199h-288l-70 -199h-68zM415 261l-123 349l-123 -349h246zM164 789l-40 31q38 69 99 69q36 0 72 -21q38 -20 59 -20q38 0 67 36l40 -31q-37 -69 -99 -69q-35 0 -73 20q-36 21 -58 21q-39 0 -67 -36z" />
    <glyph glyph-name="Adieresis" unicode="&#xc4;" horiz-adv-x="584" 
d="M10 0l253 700h58l253 -700h-68l-70 199h-288l-70 -199h-68zM415 261l-123 349l-123 -349h246zM166 846q0 21 14 35.5t35 14.5t35 -14.5t14 -35.5q0 -20 -14 -34t-35 -14t-35 14t-14 34zM320 846q0 21 14 35.5t34 14.5q21 0 35.5 -14.5t14.5 -35.5q0 -20 -14.5 -34
t-35.5 -14q-20 0 -34 14t-14 34z" />
    <glyph glyph-name="Aring" unicode="&#xc5;" horiz-adv-x="584" 
d="M10 0l253 700h58l253 -700h-68l-70 199h-288l-70 -199h-68zM415 261l-123 349l-123 -349h246zM198 849q0 41 28 69.5t69 28.5q42 0 69.5 -28t27.5 -70q0 -40 -27.5 -67t-69.5 -27q-41 0 -69 27t-28 67zM295 798q23 0 37 14.5t14 37.5q0 24 -14 39t-37 15
q-22 0 -36.5 -15.5t-14.5 -38.5t14.5 -37.5t36.5 -14.5z" />
    <glyph glyph-name="AE" unicode="&#xc6;" horiz-adv-x="821" 
d="M7 0l307 700h435v-62h-329v-234h269v-62h-269v-280h339v-62h-405v199h-191l-87 -199h-69zM354 610h-11l-153 -349h164v349z" />
    <glyph glyph-name="Ccedilla" unicode="&#xc7;" horiz-adv-x="680" 
d="M567 211l65 -19q-27 -94 -96.5 -147t-167.5 -53q-128 0 -219 93q-90 93 -90 265q0 86 25.5 156.5t70.5 113.5q91 88 213 88q98 0 167.5 -53t96.5 -147l-65 -19q-20 76 -71 116.5t-128 40.5q-108 0 -174 -78t-66 -218t66 -218t174 -78q77 0 128 40.5t71 116.5zM370 -60h55
l-81 -154l-72 31z" />
    <glyph glyph-name="Egrave" unicode="&#xc8;" horiz-adv-x="568" 
d="M101 0v700h395v-62h-329v-234h269v-62h-269v-280h339v-62h-405zM199 896h93l70 -140h-49z" />
    <glyph glyph-name="Eacute" unicode="&#xc9;" horiz-adv-x="568" 
d="M101 0v700h395v-62h-329v-234h269v-62h-269v-280h339v-62h-405zM295 756h-49l70 140h93z" />
    <glyph glyph-name="Ecircumflex" unicode="&#xca;" horiz-adv-x="568" 
d="M101 0v700h395v-62h-329v-234h269v-62h-269v-280h339v-62h-405zM215 762h-72l144 151h22l144 -151h-72l-83 89z" />
    <glyph glyph-name="Edieresis" unicode="&#xcb;" horiz-adv-x="568" 
d="M101 0v700h395v-62h-329v-234h269v-62h-269v-280h339v-62h-405zM183 846q0 21 14 35.5t35 14.5t35 -14.5t14 -35.5q0 -20 -14 -34t-35 -14t-35 14t-14 34zM337 846q0 21 14 35.5t34 14.5q21 0 35.5 -14.5t14.5 -35.5q0 -20 -14.5 -34t-35.5 -14q-20 0 -34 14t-14 34z" />
    <glyph glyph-name="Igrave" unicode="&#xcc;" horiz-adv-x="268" 
d="M101 700h66v-700h-66v700zM25 896h93l70 -140h-49z" />
    <glyph glyph-name="Iacute" unicode="&#xcd;" horiz-adv-x="268" 
d="M101 700h66v-700h-66v700zM134 756h-49l70 140h93z" />
    <glyph glyph-name="Icircumflex" unicode="&#xce;" horiz-adv-x="268" 
d="M101 700h66v-700h-66v700zM51 762h-72l144 151h22l144 -151h-72l-83 89z" />
    <glyph glyph-name="Idieresis" unicode="&#xcf;" horiz-adv-x="268" 
d="M101 700h66v-700h-66v700zM8 846q0 21 14 35.5t35 14.5t35 -14.5t14 -35.5q0 -20 -14 -34t-35 -14t-35 14t-14 34zM162 846q0 21 14 35.5t34 14.5q21 0 35.5 -14.5t14.5 -35.5q0 -20 -14.5 -34t-35.5 -14q-20 0 -34 14t-14 34z" />
    <glyph glyph-name="Eth" unicode="&#xd0;" horiz-adv-x="687" 
d="M126 319h-84v62h84v319h184q138 0 228 -95t90 -255q0 -162 -90 -256t-228 -94h-184v319zM311 638h-119v-257h84v-62h-84v-257h119q106 0 176 73q72 73 72 215t-72 215q-70 73 -176 73z" />
    <glyph glyph-name="Ntilde" unicode="&#xd1;" horiz-adv-x="693" 
d="M526 105v595h66v-700h-78l-347 593v-593h-66v700h78zM213 789l-40 31q37 69 99 69q36 0 72 -21q38 -20 59 -20q39 0 67 36l40 -31q-38 -69 -99 -69q-35 0 -73 20q-36 21 -58 21q-38 0 -67 -36z" />
    <glyph glyph-name="Ograve" unicode="&#xd2;" horiz-adv-x="732" 
d="M148 609q90 99 218 99t217 -99q90 -98 90 -259t-90 -260q-89 -98 -217 -98t-218 98q-89 100 -89 260q0 161 89 259zM536 568q-68 78 -170 78q-104 0 -171 -78q-67 -76 -67 -218t67 -219q68 -77 171 -77q102 0 170 77q68 79 68 219q0 141 -68 218zM247 896h93l70 -140h-49
z" />
    <glyph glyph-name="Oacute" unicode="&#xd3;" horiz-adv-x="732" 
d="M148 609q90 99 218 99t217 -99q90 -98 90 -259t-90 -260q-89 -98 -217 -98t-218 98q-89 100 -89 260q0 161 89 259zM536 568q-68 78 -170 78q-104 0 -171 -78q-67 -76 -67 -218t67 -219q68 -77 171 -77q102 0 170 77q68 79 68 219q0 141 -68 218zM336 756h-49l70 140h93z
" />
    <glyph glyph-name="Ocircumflex" unicode="&#xd4;" horiz-adv-x="732" 
d="M148 609q90 99 218 99t217 -99q90 -98 90 -259t-90 -260q-89 -98 -217 -98t-218 98q-89 100 -89 260q0 161 89 259zM536 568q-68 78 -170 78q-104 0 -171 -78q-67 -76 -67 -218t67 -219q68 -77 171 -77q102 0 170 77q68 79 68 219q0 141 -68 218zM283 762h-72l144 151h22
l144 -151h-72l-83 89z" />
    <glyph glyph-name="Otilde" unicode="&#xd5;" horiz-adv-x="732" 
d="M148 609q90 99 218 99t217 -99q90 -98 90 -259t-90 -260q-89 -98 -217 -98t-218 98q-89 100 -89 260q0 161 89 259zM536 568q-68 78 -170 78q-104 0 -171 -78q-67 -76 -67 -218t67 -219q68 -77 171 -77q102 0 170 77q68 79 68 219q0 141 -68 218zM238 789l-40 31
q38 69 99 69q36 0 72 -21q38 -20 59 -20q38 0 67 36l40 -31q-37 -69 -99 -69q-35 0 -73 20q-36 21 -58 21q-39 0 -67 -36z" />
    <glyph glyph-name="Odieresis" unicode="&#xd6;" horiz-adv-x="732" 
d="M148 609q90 99 218 99t217 -99q90 -98 90 -259t-90 -260q-89 -98 -217 -98t-218 98q-89 100 -89 260q0 161 89 259zM536 568q-68 78 -170 78q-104 0 -171 -78q-67 -76 -67 -218t67 -219q68 -77 171 -77q102 0 170 77q68 79 68 219q0 141 -68 218zM240 846q0 21 14 35.5
t35 14.5t35 -14.5t14 -35.5q0 -20 -14 -34t-35 -14t-35 14t-14 34zM394 846q0 21 14 35.5t34 14.5q21 0 35.5 -14.5t14.5 -35.5q0 -20 -14.5 -34t-35.5 -14q-20 0 -34 14t-14 34z" />
    <glyph glyph-name="multiply" unicode="&#xd7;" horiz-adv-x="524" 
d="M301 316l154 -154l-40 -39l-153 153l-154 -153l-39 39l153 154l-153 153l39 40l154 -154l152 153l40 -40z" />
    <glyph glyph-name="Oslash" unicode="&#xd8;" horiz-adv-x="732" 
d="M553 640l59 76l46 -35l-64 -83q79 -97 79 -248q0 -161 -90 -260q-89 -98 -217 -98q-107 0 -187 68l-59 -76l-46 35l64 83q-79 97 -79 248q0 161 89 259q90 99 218 99q107 0 187 -68zM366 646q-104 0 -171 -78q-67 -76 -67 -218q0 -119 50 -196l337 437q-61 55 -149 55z
M604 350q0 119 -50 196l-337 -437q61 -55 149 -55q102 0 170 77q68 79 68 219z" />
    <glyph glyph-name="Ugrave" unicode="&#xd9;" horiz-adv-x="654" 
d="M87 224v476h66v-482q0 -72 46 -118t128 -46t128 46t46 118v482h66v-476q0 -110 -70 -171q-68 -61 -170 -61q-101 0 -171 61q-69 61 -69 171zM215 896h93l70 -140h-49z" />
    <glyph glyph-name="Uacute" unicode="&#xda;" horiz-adv-x="654" 
d="M87 224v476h66v-482q0 -72 46 -118t128 -46t128 46t46 118v482h66v-476q0 -110 -70 -171q-68 -61 -170 -61q-101 0 -171 61q-69 61 -69 171zM318 756h-49l70 140h93z" />
    <glyph glyph-name="Ucircumflex" unicode="&#xdb;" horiz-adv-x="654" 
d="M87 224v476h66v-482q0 -72 46 -118t128 -46t128 46t46 118v482h66v-476q0 -110 -70 -171q-68 -61 -170 -61q-101 0 -171 61q-69 61 -69 171zM243 762h-72l144 151h22l144 -151h-72l-83 89z" />
    <glyph glyph-name="Udieresis" unicode="&#xdc;" horiz-adv-x="654" 
d="M87 224v476h66v-482q0 -72 46 -118t128 -46t128 46t46 118v482h66v-476q0 -110 -70 -171q-68 -61 -170 -61q-101 0 -171 61q-69 61 -69 171zM201 846q0 21 14 35.5t35 14.5t35 -14.5t14 -35.5q0 -20 -14 -34t-35 -14t-35 14t-14 34zM355 846q0 21 14 35.5t34 14.5
q21 0 35.5 -14.5t14.5 -35.5q0 -20 -14.5 -34t-35.5 -14q-20 0 -34 14t-14 34z" />
    <glyph glyph-name="Yacute" unicode="&#xdd;" horiz-adv-x="500" 
d="M217 0v304l-211 396h77l167 -331l167 331h77l-211 -396v-304h-66zM237 756h-49l70 140h93z" />
    <glyph glyph-name="Thorn" unicode="&#xde;" horiz-adv-x="578" 
d="M339 157h-172v-157h-66v700h66v-157h172q94 0 148 -51.5t54 -141.5t-54 -141.5t-148 -51.5zM167 219h173q66 0 99 34.5t33 96.5t-33 96.5t-99 34.5h-173v-262z" />
    <glyph glyph-name="germandbls" unicode="&#xdf;" horiz-adv-x="557" 
d="M94 354h-54v56h54v78q0 104 51 162t134 58t133 -48t50 -125q0 -56 -27 -97.5t-68 -51.5q56 -13 99 -61q42 -47 42 -117q0 -102 -57.5 -159t-154.5 -57q-41 0 -76 7v58q32 -7 70 -7q74 0 114 40t40 112q0 73 -47 112.5t-126 39.5h-32v56h38q59 0 92 32.5t33 87.5
q0 56 -34 88t-89 32q-57 0 -89 -42t-32 -121v-487h-64v354z" />
    <glyph glyph-name="agrave" unicode="&#xe0;" horiz-adv-x="506" 
d="M122 145q0 -45 26 -70t72 -25q58 0 105 45q48 45 48 138v19h-82q-83 0 -126 -27.5t-43 -79.5zM435 334v-334h-47l-15 78q-50 -86 -159 -86q-72 0 -114.5 39t-42.5 114q0 81 61 123t171 42h84v22q0 122 -116 122q-92 0 -120 -94l-60 14q10 62 60 100t120 38q77 0 127 -48
q51 -47 51 -130zM151 700h93l70 -140h-49z" />
    <glyph glyph-name="aacute" unicode="&#xe1;" horiz-adv-x="506" 
d="M122 145q0 -45 26 -70t72 -25q58 0 105 45q48 45 48 138v19h-82q-83 0 -126 -27.5t-43 -79.5zM435 334v-334h-47l-15 78q-50 -86 -159 -86q-72 0 -114.5 39t-42.5 114q0 81 61 123t171 42h84v22q0 122 -116 122q-92 0 -120 -94l-60 14q10 62 60 100t120 38q77 0 127 -48
q51 -47 51 -130zM253 560h-49l70 140h93z" />
    <glyph glyph-name="acircumflex" unicode="&#xe2;" horiz-adv-x="506" 
d="M122 145q0 -45 26 -70t72 -25q58 0 105 45q48 45 48 138v19h-82q-83 0 -126 -27.5t-43 -79.5zM435 334v-334h-47l-15 78q-50 -86 -159 -86q-72 0 -114.5 39t-42.5 114q0 81 61 123t171 42h84v22q0 122 -116 122q-92 0 -120 -94l-60 14q10 62 60 100t120 38q77 0 127 -48
q51 -47 51 -130zM178 566h-72l144 151h22l144 -151h-72l-83 89z" />
    <glyph glyph-name="atilde" unicode="&#xe3;" horiz-adv-x="506" 
d="M122 145q0 -45 26 -70t72 -25q58 0 105 45q48 45 48 138v19h-82q-83 0 -126 -27.5t-43 -79.5zM435 334v-334h-47l-15 78q-50 -86 -159 -86q-72 0 -114.5 39t-42.5 114q0 81 61 123t171 42h84v22q0 122 -116 122q-92 0 -120 -94l-60 14q10 62 60 100t120 38q77 0 127 -48
q51 -47 51 -130zM133 593l-40 31q37 69 99 69q36 0 72 -21q38 -20 59 -20q39 0 67 36l40 -31q-38 -69 -99 -69q-35 0 -73 20q-36 21 -58 21q-38 0 -67 -36z" />
    <glyph glyph-name="adieresis" unicode="&#xe4;" horiz-adv-x="506" 
d="M122 145q0 -45 26 -70t72 -25q58 0 105 45q48 45 48 138v19h-82q-83 0 -126 -27.5t-43 -79.5zM435 334v-334h-47l-15 78q-50 -86 -159 -86q-72 0 -114.5 39t-42.5 114q0 81 61 123t171 42h84v22q0 122 -116 122q-92 0 -120 -94l-60 14q10 62 60 100t120 38q77 0 127 -48
q51 -47 51 -130zM134 650q0 21 14 35.5t35 14.5t35 -14.5t14 -35.5q0 -20 -14 -34t-35 -14t-35 14t-14 34zM288 650q0 21 14 35.5t34 14.5q21 0 35.5 -14.5t14.5 -35.5q0 -20 -14.5 -34t-35.5 -14q-20 0 -34 14t-14 34z" />
    <glyph glyph-name="aring" unicode="&#xe5;" horiz-adv-x="506" 
d="M122 145q0 -45 26 -70t72 -25q58 0 105 45q48 45 48 138v19h-82q-83 0 -126 -27.5t-43 -79.5zM435 334v-334h-47l-15 78q-50 -86 -159 -86q-72 0 -114.5 39t-42.5 114q0 81 61 123t171 42h84v22q0 122 -116 122q-92 0 -120 -94l-60 14q10 62 60 100t120 38q77 0 127 -48
q51 -47 51 -130zM160 653q0 41 28 69.5t69 28.5q42 0 69.5 -28t27.5 -70q0 -40 -27.5 -67t-69.5 -27q-41 0 -69 27t-28 67zM257 602q23 0 37 14.5t14 37.5q0 24 -14 39t-37 15q-22 0 -36.5 -15.5t-14.5 -38.5t14.5 -37.5t36.5 -14.5z" />
    <glyph glyph-name="ae" unicode="&#xe6;" horiz-adv-x="869" 
d="M818 280v-28h-380q0 -91 43 -146.5t116 -55.5q106 0 154 104l56 -23q-38 -74 -87.5 -106.5t-122.5 -32.5q-66 0 -118.5 34.5t-76.5 92.5q-23 -62 -72 -94.5t-116 -32.5q-72 0 -114.5 39t-42.5 114q0 81 61 123t171 42h84v22q0 122 -116 122q-92 0 -120 -94l-60 14
q10 62 60 100t120 38q56 0 99.5 -26t63.5 -71q63 97 177 97q98 0 159 -64q62 -65 62 -168zM122 145q0 -45 26 -70t72 -25q58 0 105 45q48 45 48 138v19h-82q-83 0 -126 -27.5t-43 -79.5zM597 454q-60 0 -101 -39.5t-54 -104.5h312q-9 68 -50 106t-107 38z" />
    <glyph glyph-name="ccedilla" unicode="&#xe7;" horiz-adv-x="528" 
d="M426 153l56 -22q-52 -139 -203 -139q-106 0 -164 76q-59 77 -59 184q0 106 59 183t164 77q151 0 203 -139l-56 -22q-42 103 -147 103q-78 0 -118 -58q-40 -56 -40 -144q0 -87 40 -145q41 -57 118 -57q105 0 147 103zM282 -60h55l-81 -154l-72 31z" />
    <glyph glyph-name="egrave" unicode="&#xe8;" horiz-adv-x="552" 
d="M501 280v-28h-380q0 -91 43 -146.5t116 -55.5q57 0 92 25t63 83l55 -27q-38 -74 -87.5 -106.5t-122.5 -32.5q-101 0 -162 73q-62 74 -62 187q0 112 62 186t162 74q98 0 159 -64q62 -65 62 -168zM280 454q-60 0 -101 -39.5t-54 -104.5h312q-9 68 -50 106t-107 38zM181 700
h93l70 -140h-49z" />
    <glyph glyph-name="eacute" unicode="&#xe9;" horiz-adv-x="552" 
d="M501 280v-28h-380q0 -91 43 -146.5t116 -55.5q57 0 92 25t63 83l55 -27q-38 -74 -87.5 -106.5t-122.5 -32.5q-101 0 -162 73q-62 74 -62 187q0 112 62 186t162 74q98 0 159 -64q62 -65 62 -168zM280 454q-60 0 -101 -39.5t-54 -104.5h312q-9 68 -50 106t-107 38zM254 560
h-49l70 140h93z" />
    <glyph glyph-name="ecircumflex" unicode="&#xea;" horiz-adv-x="552" 
d="M501 280v-28h-380q0 -91 43 -146.5t116 -55.5q57 0 92 25t63 83l55 -27q-38 -74 -87.5 -106.5t-122.5 -32.5q-101 0 -162 73q-62 74 -62 187q0 112 62 186t162 74q98 0 159 -64q62 -65 62 -168zM280 454q-60 0 -101 -39.5t-54 -104.5h312q-9 68 -50 106t-107 38zM197 566
h-72l144 151h22l144 -151h-72l-83 89z" />
    <glyph glyph-name="edieresis" unicode="&#xeb;" horiz-adv-x="552" 
d="M501 280v-28h-380q0 -91 43 -146.5t116 -55.5q57 0 92 25t63 83l55 -27q-38 -74 -87.5 -106.5t-122.5 -32.5q-101 0 -162 73q-62 74 -62 187q0 112 62 186t162 74q98 0 159 -64q62 -65 62 -168zM280 454q-60 0 -101 -39.5t-54 -104.5h312q-9 68 -50 106t-107 38zM160 650
q0 21 14 35.5t35 14.5t35 -14.5t14 -35.5q0 -20 -14 -34t-35 -14t-35 14t-14 34zM314 650q0 21 14 35.5t34 14.5q21 0 35.5 -14.5t14.5 -35.5q0 -20 -14.5 -34t-35.5 -14q-20 0 -34 14t-14 34z" />
    <glyph glyph-name="igrave" unicode="&#xec;" horiz-adv-x="280" 
d="M110 0v504h62v-504h-62zM27 700h93l70 -140h-49z" />
    <glyph glyph-name="iacute" unicode="&#xed;" horiz-adv-x="280" 
d="M110 0v504h62v-504h-62zM146 560h-49l70 140h93z" />
    <glyph glyph-name="icircumflex" unicode="&#xee;" horiz-adv-x="280" 
d="M110 0v504h62v-504h-62zM57 566h-72l144 151h22l144 -151h-72l-83 89z" />
    <glyph glyph-name="idieresis" unicode="&#xef;" horiz-adv-x="280" 
d="M110 0v504h62v-504h-62zM16 650q0 21 14 35.5t35 14.5t35 -14.5t14 -35.5q0 -20 -14 -34t-35 -14t-35 14t-14 34zM170 650q0 21 14 35.5t34 14.5q21 0 35.5 -14.5t14.5 -35.5q0 -20 -14.5 -34t-35.5 -14q-20 0 -34 14t-14 34z" />
    <glyph glyph-name="eth" unicode="&#xf0;" horiz-adv-x="574" 
d="M289 616l-44 -65l-42 30l44 64q-41 25 -81 42l29 43q44 -20 82 -41l38 56l42 -30l-37 -54q198 -135 198 -409q0 -105 -63 -183q-63 -77 -168 -77t-168 77q-63 78 -63 183q0 106 63 182q63 78 168 78q83 0 136 -57q-27 80 -134 161zM164 394q-43 -58 -43 -142t43 -143
q44 -59 123 -59t123 59q43 59 43 143t-43 142q-44 60 -123 60t-123 -60z" />
    <glyph glyph-name="ntilde" unicode="&#xf1;" horiz-adv-x="576" 
d="M486 346v-346h-62v338q0 116 -103 116q-71 0 -117 -64t-46 -169v-221h-62v504h62v-105q27 52 73.5 82.5t99.5 30.5q72 0 113.5 -44t41.5 -122zM167 593l-40 31q37 69 99 69q36 0 72 -21q38 -20 59 -20q39 0 67 36l40 -31q-38 -69 -99 -69q-35 0 -73 20q-36 21 -58 21
q-38 0 -67 -36z" />
    <glyph glyph-name="ograve" unicode="&#xf2;" horiz-adv-x="584" 
d="M121 70q-65 79 -65 182t65 182q65 78 171 78t171 -78q65 -79 65 -182t-65 -182q-65 -78 -171 -78t-171 78zM166 394q-45 -60 -45 -142t45 -142q46 -60 126 -60t125 60q46 59 46 142t-46 142q-45 60 -125 60t-126 -60zM185 700h93l70 -140h-49z" />
    <glyph glyph-name="oacute" unicode="&#xf3;" horiz-adv-x="584" 
d="M121 70q-65 79 -65 182t65 182q65 78 171 78t171 -78q65 -79 65 -182t-65 -182q-65 -78 -171 -78t-171 78zM166 394q-45 -60 -45 -142t45 -142q46 -60 126 -60t125 60q46 59 46 142t-46 142q-45 60 -125 60t-126 -60zM267 560h-49l70 140h93z" />
    <glyph glyph-name="ocircumflex" unicode="&#xf4;" horiz-adv-x="584" 
d="M121 70q-65 79 -65 182t65 182q65 78 171 78t171 -78q65 -79 65 -182t-65 -182q-65 -78 -171 -78t-171 78zM166 394q-45 -60 -45 -142t45 -142q46 -60 126 -60t125 60q46 59 46 142t-46 142q-45 60 -125 60t-126 -60zM209 566h-72l144 151h22l144 -151h-72l-83 89z" />
    <glyph glyph-name="otilde" unicode="&#xf5;" horiz-adv-x="584" 
d="M121 70q-65 79 -65 182t65 182q65 78 171 78t171 -78q65 -79 65 -182t-65 -182q-65 -78 -171 -78t-171 78zM166 394q-45 -60 -45 -142t45 -142q46 -60 126 -60t125 60q46 59 46 142t-46 142q-45 60 -125 60t-126 -60zM164 593l-40 31q38 69 99 69q36 0 72 -21
q38 -20 59 -20q38 0 67 36l40 -31q-37 -69 -99 -69q-35 0 -73 20q-36 21 -58 21q-39 0 -67 -36z" />
    <glyph glyph-name="odieresis" unicode="&#xf6;" horiz-adv-x="584" 
d="M121 70q-65 79 -65 182t65 182q65 78 171 78t171 -78q65 -79 65 -182t-65 -182q-65 -78 -171 -78t-171 78zM166 394q-45 -60 -45 -142t45 -142q46 -60 126 -60t125 60q46 59 46 142t-46 142q-45 60 -125 60t-126 -60zM166 650q0 21 14 35.5t35 14.5t35 -14.5t14 -35.5
q0 -20 -14 -34t-35 -14t-35 14t-14 34zM320 650q0 21 14 35.5t34 14.5q21 0 35.5 -14.5t14.5 -35.5q0 -20 -14.5 -34t-35.5 -14q-20 0 -34 14t-14 34z" />
    <glyph glyph-name="divide" unicode="&#xf7;" horiz-adv-x="510" 
d="M217 97q-14 15 -14 37t14 36q15 15 37 15t36 -15q15 -14 15 -36t-15 -37q-14 -14 -36 -14t-37 14zM217 463q-14 15 -14 37t14 36q15 15 37 15t36 -15q15 -14 15 -36t-15 -37q-14 -14 -36 -14t-37 14zM460 289h-410v56h410v-56z" />
    <glyph glyph-name="oslash" unicode="&#xf8;" horiz-adv-x="584" 
d="M56 252q0 103 65 182q65 78 171 78q78 0 134 -43l56 71l46 -35l-60 -76q60 -73 60 -177q0 -103 -65 -182q-65 -78 -171 -78q-78 0 -134 43l-56 -71l-46 35l60 76q-60 73 -60 177zM463 252q0 75 -34 127l-235 -297q43 -32 98 -32q80 0 125 60q46 59 46 142zM121 252
q0 -75 34 -127l235 297q-43 32 -98 32q-80 0 -126 -60q-45 -60 -45 -142z" />
    <glyph glyph-name="ugrave" unicode="&#xf9;" 
d="M90 158v346h62v-338q0 -116 103 -116q70 0 116 64q47 65 47 169v221h62v-504h-62v105q-27 -52 -73.5 -82.5t-99.5 -30.5q-72 0 -113.5 44t-41.5 122zM192 700h93l70 -140h-49z" />
    <glyph glyph-name="uacute" unicode="&#xfa;" 
d="M90 158v346h62v-338q0 -116 103 -116q70 0 116 64q47 65 47 169v221h62v-504h-62v105q-27 -52 -73.5 -82.5t-99.5 -30.5q-72 0 -113.5 44t-41.5 122zM265 560h-49l70 140h93z" />
    <glyph glyph-name="ucircumflex" unicode="&#xfb;" 
d="M90 158v346h62v-338q0 -116 103 -116q70 0 116 64q47 65 47 169v221h62v-504h-62v105q-27 -52 -73.5 -82.5t-99.5 -30.5q-72 0 -113.5 44t-41.5 122zM204 566h-72l144 151h22l144 -151h-72l-83 89z" />
    <glyph glyph-name="udieresis" unicode="&#xfc;" 
d="M90 158v346h62v-338q0 -116 103 -116q70 0 116 64q47 65 47 169v221h62v-504h-62v105q-27 -52 -73.5 -82.5t-99.5 -30.5q-72 0 -113.5 44t-41.5 122zM163 650q0 21 14 35.5t35 14.5t35 -14.5t14 -35.5q0 -20 -14 -34t-35 -14t-35 14t-14 34zM317 650q0 21 14 35.5
t34 14.5q21 0 35.5 -14.5t14.5 -35.5q0 -20 -14.5 -34t-35.5 -14q-20 0 -34 14t-14 34z" />
    <glyph glyph-name="yacute" unicode="&#xfd;" horiz-adv-x="452" 
d="M232 96l140 408h65l-250 -708h-62l73 207l-181 501h65zM222 560h-49l70 140h93z" />
    <glyph glyph-name="thorn" unicode="&#xfe;" horiz-adv-x="599" 
d="M97 -204v912h64v-275q27 35 71 57t86 22q106 0 165 -74q60 -74 60 -186q0 -114 -60 -187q-58 -73 -165 -73q-47 0 -91.5 21.5t-65.5 52.5v-270h-64zM478 252q0 89 -43 145q-43 57 -120 57t-120 -57q-42 -57 -42 -145q0 -91 43 -146.5t119 -55.5q77 0 120 55.5t43 146.5z
" />
    <glyph glyph-name="ydieresis" unicode="&#xff;" horiz-adv-x="452" 
d="M232 96l140 408h65l-250 -708h-62l73 207l-181 501h65zM106 650q0 21 14 35.5t35 14.5t35 -14.5t14 -35.5q0 -20 -14 -34t-35 -14t-35 14t-14 34zM260 650q0 21 14 35.5t34 14.5q21 0 35.5 -14.5t14.5 -35.5q0 -20 -14.5 -34t-35.5 -14q-20 0 -34 14t-14 34z" />
    <glyph glyph-name="dotlessi" unicode="&#x131;" horiz-adv-x="280" 
d="M109 0v504h62v-504h-62z" />
    <glyph glyph-name="Lslash" unicode="&#x141;" horiz-adv-x="515" 
d="M101 340v360h66v-323l128 74l27 -47l-155 -89v-253h328v-62h-394v278l-72 -42l-24 47z" />
    <glyph glyph-name="lslash" unicode="&#x142;" horiz-adv-x="324" 
d="M128 317l-77 -43l-27 47l104 58v329h62v-295l77 43l27 -47l-104 -58v-351h-62v317z" />
    <glyph glyph-name="OE" unicode="&#x152;" horiz-adv-x="1074" 
d="M607 580v120h395v-62h-329v-234h269v-62h-269v-280h339v-62h-405v120q-42 -61 -105.5 -94.5t-135.5 -33.5q-128 0 -218 98q-89 100 -89 260q0 161 89 259q90 99 218 99q72 0 135.5 -33.5t105.5 -94.5zM536 568q-68 78 -170 78q-104 0 -171 -78q-67 -76 -67 -218t67 -219
q68 -77 171 -77q102 0 170 77q68 79 68 219q0 141 -68 218z" />
    <glyph glyph-name="oe" unicode="&#x153;" horiz-adv-x="959" 
d="M908 280v-28h-380v-9q2 -88 44.5 -140.5t114.5 -52.5q106 0 154 104l56 -23q-38 -74 -87.5 -106.5t-122.5 -32.5q-65 0 -115.5 32t-78.5 90q-31 -57 -83 -89.5t-118 -32.5q-106 0 -171 78q-65 79 -65 182t65 182q65 78 171 78q66 0 118 -32.5t83 -89.5q28 58 78.5 90
t115.5 32q98 0 159 -64q62 -65 62 -168zM166 394q-45 -60 -45 -142t45 -142q46 -60 126 -60t125 60q46 59 46 142t-46 142q-45 60 -125 60t-126 -60zM687 454q-59 0 -100 -39.5t-54 -104.5h311q-9 68 -50 106t-107 38z" />
    <glyph glyph-name="Scaron" unicode="&#x160;" horiz-adv-x="506" 
d="M418 600l-54 -34q-42 80 -116 80q-44 0 -70.5 -30t-26.5 -72q0 -81 108 -131q36 -16 89 -43q48 -23 78 -67.5t30 -105.5q0 -93 -57 -149q-56 -56 -143 -56q-83 0 -139.5 51t-74.5 138l57 34q23 -80 58.5 -120.5t98.5 -40.5q60 0 95.5 37t35.5 104q0 85 -107 135
q-95 44 -130 72q-66 55 -65 134q0 75 47 124q48 48 116 48q49 0 82 -16q33 -15 49 -33t39 -59zM263 762h-22l-144 151h72l83 -89l83 89h72z" />
    <glyph glyph-name="scaron" unicode="&#x161;" horiz-adv-x="450" 
d="M230 512q84 0 140 -78l-44 -38q-43 58 -99 58q-33 0 -53.5 -21t-20.5 -55q0 -49 84 -83q37 -15 55 -23.5t46 -26.5t41 -41.5t13 -53.5q0 -73 -42 -115.5t-114 -42.5q-70 0 -116.5 38.5t-65.5 99.5l55 29q20 -55 49 -82t78 -27q44 0 67.5 24t23.5 66q0 58 -84 88
q-80 32 -106 52q-48 37 -48 97t40 97.5t101 37.5zM241 566h-22l-144 151h72l83 -89l83 89h72z" />
    <glyph glyph-name="Ydieresis" unicode="&#x178;" horiz-adv-x="500" 
d="M217 0v304l-211 396h77l167 -331l167 331h77l-211 -396v-304h-66zM124 846q0 21 14 35.5t35 14.5t35 -14.5t14 -35.5q0 -20 -14 -34t-35 -14t-35 14t-14 34zM278 846q0 21 14 35.5t34 14.5q21 0 35.5 -14.5t14.5 -35.5q0 -20 -14.5 -34t-35.5 -14q-20 0 -34 14t-14 34z
" />
    <glyph glyph-name="Zcaron" unicode="&#x17d;" horiz-adv-x="548" 
d="M400 638h-340v62h428v-32l-348 -606h355v-62h-447v32zM293 762h-22l-144 151h72l83 -89l83 89h72z" />
    <glyph glyph-name="zcaron" unicode="&#x17e;" horiz-adv-x="456" 
d="M313 446h-245v58h327v-34l-254 -412h265v-58h-350v30zM240 566h-22l-144 151h72l83 -89l83 89h72z" />
    <glyph glyph-name="florin" unicode="&#x192;" horiz-adv-x="468" 
d="M205 446h-90l12 58h90l6 32q17 91 62 131.5t124 40.5q39 0 61 -13l-24 -57q-22 12 -50 12q-88 0 -109 -104l-8 -42h122l-12 -58h-122l-94 -486q-18 -92 -61.5 -132t-120.5 -40q-43 0 -65 13l24 57q24 -12 50 -12q47 0 72.5 24.5t36.5 79.5z" />
    <glyph glyph-name="circumflex" unicode="&#x2c6;" horiz-adv-x="370" 
d="M102 566h-72l144 151h22l144 -151h-72l-83 89z" />
    <glyph glyph-name="caron" unicode="&#x2c7;" horiz-adv-x="370" 
d="M196 566h-22l-144 151h72l83 -89l83 89h72z" />
    <glyph glyph-name="breve" unicode="&#x2d8;" horiz-adv-x="239" 
d="M170 700h51q0 -49 -28.5 -79t-76.5 -30t-76.5 30t-28.5 79h51q0 -27 14 -43t40 -16q54 0 54 59z" />
    <glyph glyph-name="dotaccent" unicode="&#x2d9;" horiz-adv-x="250" 
d="M88 612q-14 15 -14 37t14 36q15 15 37 15t36 -15q15 -14 15 -36t-15 -37q-14 -14 -36 -14t-37 14z" />
    <glyph glyph-name="ring" unicode="&#x2da;" horiz-adv-x="234" 
d="M20 653q0 41 28 69.5t69 28.5q42 0 69.5 -28t27.5 -70q0 -40 -27.5 -67t-69.5 -27q-41 0 -69 27t-28 67zM117 602q23 0 37 14.5t14 37.5q0 24 -14 39t-37 15q-22 0 -36.5 -15.5t-14.5 -38.5t14.5 -37.5t36.5 -14.5z" />
    <glyph glyph-name="ogonek" unicode="&#x2db;" horiz-adv-x="208" 
d="M69 -60h55q-56 -51 -56 -80q0 -33 33 -33q25 0 57 42l39 -31q-28 -37 -51 -52t-55 -15q-36 0 -57.5 21t-21.5 56q0 52 57 92z" />
    <glyph glyph-name="tilde" unicode="&#x2dc;" horiz-adv-x="377" 
d="M60 593l-40 31q38 69 99 69q36 0 72 -21q38 -20 59 -20q38 0 67 36l40 -31q-37 -69 -99 -69q-35 0 -73 20q-36 21 -58 21q-38 0 -67 -36z" />
    <glyph glyph-name="hungarumlaut" unicode="&#x2dd;" horiz-adv-x="357" 
d="M74 560h-49l70 140h93zM226 560h-49l70 140h93z" />
    <glyph glyph-name="uni2206" unicode="&#x394;" horiz-adv-x="654" 
d="M596 0h-538v16l236 684h66l236 -684v-16zM514 58l-187 549l-187 -549h374z" />
    <glyph glyph-name="uni2206" unicode="&#x2206;" horiz-adv-x="654" 
d="M596 0h-538v16l236 684h66l236 -684v-16zM514 58l-187 549l-187 -549h374z" />
    <glyph glyph-name="uni2126" unicode="&#x3a9;" horiz-adv-x="682" 
d="M290 0h-210v56h138q-14 22 -41 81q-21 49 -36 88q-13 37 -28 103q-13 58 -13 112q0 119 65 193q66 75 176 75q111 0 175 -75q66 -73 66 -193q0 -158 -102 -354l-16 -30h138v-56h-210v19q14 24 41 88q21 52 35 95q14 41 29 114q13 64 13 124q0 97 -46.5 154.5t-122.5 57.5
t-122.5 -57.5t-46.5 -154.5q0 -175 101 -388l17 -33v-19z" />
    <glyph glyph-name="uni2126" unicode="&#x2126;" horiz-adv-x="682" 
d="M290 0h-210v56h138q-14 22 -41 81q-21 49 -36 88q-13 37 -28 103q-13 58 -13 112q0 119 65 193q66 75 176 75q111 0 175 -75q66 -73 66 -193q0 -158 -102 -354l-16 -30h138v-56h-210v19q14 24 41 88q21 52 35 95q14 41 29 114q13 64 13 124q0 97 -46.5 154.5t-122.5 57.5
t-122.5 -57.5t-46.5 -154.5q0 -175 101 -388l17 -33v-19z" />
    <glyph glyph-name="pi" unicode="&#x3c0;" horiz-adv-x="593" 
d="M145 448h-89v56h481v-56h-89v-448h-62v448h-179v-448h-62v448z" />
    <glyph glyph-name="uni2000" unicode="&#x2000;" horiz-adv-x="473" 
 />
    <glyph glyph-name="uni2001" unicode="&#x2001;" horiz-adv-x="947" 
 />
    <glyph glyph-name="uni2002" unicode="&#x2002;" horiz-adv-x="473" 
 />
    <glyph glyph-name="uni2003" unicode="&#x2003;" horiz-adv-x="947" 
 />
    <glyph glyph-name="uni2004" unicode="&#x2004;" horiz-adv-x="315" 
 />
    <glyph glyph-name="uni2005" unicode="&#x2005;" horiz-adv-x="236" 
 />
    <glyph glyph-name="uni2006" unicode="&#x2006;" horiz-adv-x="157" 
 />
    <glyph glyph-name="uni2007" unicode="&#x2007;" horiz-adv-x="157" 
 />
    <glyph glyph-name="uni2008" unicode="&#x2008;" horiz-adv-x="118" 
 />
    <glyph glyph-name="uni2009" unicode="&#x2009;" horiz-adv-x="189" 
 />
    <glyph glyph-name="uni200A" unicode="&#x200a;" horiz-adv-x="52" 
 />
    <glyph glyph-name="uni2010" unicode="&#x2010;" horiz-adv-x="471" 
d="M400 289h-329v56h329v-56z" />
    <glyph glyph-name="uni2011" unicode="&#x2011;" horiz-adv-x="471" 
d="M400 289h-329v56h329v-56z" />
    <glyph glyph-name="endash" unicode="&#x2013;" horiz-adv-x="557" 
d="M481 289h-409v56h409v-56z" />
    <glyph glyph-name="emdash" unicode="&#x2014;" horiz-adv-x="762" 
d="M686 289h-614v56h614v-56z" />
    <glyph glyph-name="quoteleft" unicode="&#x2018;" horiz-adv-x="275" 
d="M60 708h103l61 -184h-49z" />
    <glyph glyph-name="quoteright" unicode="&#x2019;" horiz-adv-x="275" 
d="M100 524h-49l61 184h103z" />
    <glyph glyph-name="quotesinglbase" unicode="&#x201a;" horiz-adv-x="275" 
d="M100 -14h-49l61 184h103z" />
    <glyph glyph-name="quotedblleft" unicode="&#x201c;" horiz-adv-x="418" 
d="M203 708h103l61 -184h-49zM60 708h103l61 -184h-49z" />
    <glyph glyph-name="quotedblright" unicode="&#x201d;" horiz-adv-x="418" 
d="M100 524h-49l61 184h103zM243 524h-49l61 184h103z" />
    <glyph glyph-name="quotedblbase" unicode="&#x201e;" horiz-adv-x="418" 
d="M100 -14h-49l61 184h103zM243 -14h-49l61 184h103z" />
    <glyph glyph-name="dagger" unicode="&#x2020;" horiz-adv-x="460" 
d="M200 448h-135v56h135v246h60v-246h135v-56h-135v-498h-60v498z" />
    <glyph glyph-name="daggerdbl" unicode="&#x2021;" horiz-adv-x="460" 
d="M200 448h-135v56h135v246h60v-246h135v-56h-135v-196h135v-56h-135v-246h-60v246h-135v56h135v196z" />
    <glyph glyph-name="bullet" unicode="&#x2022;" horiz-adv-x="304" 
d="M106 284q-19 19 -19 46t19 46t46 19t46 -19t19 -46t-19 -46t-46 -19t-46 19z" />
    <glyph glyph-name="ellipsis" unicode="&#x2026;" horiz-adv-x="778" 
d="M91 49q0 22 14.5 36.5t36.5 14.5t36.5 -14.5t14.5 -36.5t-14.5 -36.5t-36.5 -14.5t-36.5 14t-14.5 37zM338 49q0 33 32 46.5t55 -10.5q24 -23 10.5 -55t-46.5 -32q-23 0 -37 14t-14 37zM585 49q0 22 14.5 36.5t36.5 14.5t36.5 -14.5t14.5 -36.5t-14.5 -36.5t-36.5 -14.5
t-36.5 14t-14.5 37z" />
    <glyph glyph-name="uni202F" unicode="&#x202f;" horiz-adv-x="189" 
 />
    <glyph glyph-name="perthousand" unicode="&#x2030;" horiz-adv-x="1244" 
d="M106 434q-44 47 -44 114q0 66 44 113q45 47 113 47t112 -47q45 -47 45 -113q0 -68 -45 -114q-43 -46 -112 -46q-68 0 -113 46zM144 624q-28 -29 -28 -76t28 -76q28 -30 75 -30t75 30q28 29 28 76t-28 76q-28 30 -75 30t-75 -30zM512 38q-44 47 -44 114q0 66 44 113
q45 47 113 47t112 -47q45 -47 45 -113q0 -68 -45 -114q-43 -46 -112 -46q-68 0 -113 46zM550 228q-28 -29 -28 -76t28 -76q28 -30 75 -30t75 30q28 29 28 76t-28 76q-28 30 -75 30t-75 -30zM130 9l542 715l42 -33l-542 -715zM912 38q-44 47 -44 114q0 66 44 113
q45 47 113 47t112 -47q45 -46 45 -113q0 -68 -45 -114q-43 -46 -112 -46q-68 0 -113 46zM950 228q-28 -29 -28 -76t28 -76q28 -30 75 -30t75 30q28 29 28 76t-28 76q-28 30 -75 30t-75 -30z" />
    <glyph glyph-name="guilsinglleft" unicode="&#x2039;" horiz-adv-x="373" 
d="M313 94l-263 195v42l263 195v-68l-198 -148l198 -148v-68z" />
    <glyph glyph-name="guilsinglright" unicode="&#x203a;" horiz-adv-x="373" 
d="M60 526l263 -195v-42l-263 -195v68l198 148l-198 148v68z" />
    <glyph glyph-name="fraction" unicode="&#x2044;" horiz-adv-x="608" 
d="M12 9l542 715l42 -33l-542 -715z" />
    <glyph glyph-name="uni205F" unicode="&#x205f;" horiz-adv-x="236" 
 />
    <glyph glyph-name="uni2070" unicode="&#x2070;" horiz-adv-x="385" 
d="M86 648q38 56 107 56q68 0 106 -56t38 -148q0 -93 -38 -149q-37 -55 -106 -55q-70 0 -107 55q-38 56 -38 149q0 92 38 148zM259 616q-24 40 -66 40t-67 -40q-24 -40 -24 -116t24 -116q25 -40 67 -40t66 40q25 40 25 116t-25 116z" />
    <glyph glyph-name="uni2074" unicode="&#x2074;" horiz-adv-x="338" 
d="M256 300h-50v83h-171v17l162 300h59v-269h52v-48h-52v-83zM206 626l-102 -195h102v195z" />
    <glyph glyph-name="uni2075" unicode="&#x2075;" horiz-adv-x="333" 
d="M50 406l49 9q15 -71 74 -71q37 0 56.5 23t19.5 64q0 88 -76 88q-47 0 -78 -45l-36 8l21 218h199v-48h-156l-13 -115q25 28 71 28q57 0 89.5 -35.5t32.5 -98.5q0 -62 -35.5 -98.5t-94.5 -36.5q-50 0 -83 29t-40 81z" />
    <glyph glyph-name="uni2076" unicode="&#x2076;" horiz-adv-x="365" 
d="M191 559q56 0 90 -36t34 -95q0 -58 -35.5 -95t-94.5 -37t-95 37t-36 95q0 42 24 85l109 191h54l-91 -155q10 10 41 10zM108 428q0 -37 21 -60.5t56 -23.5t55.5 23.5t20.5 60.5q0 39 -20 61t-56 22t-56.5 -22.5t-20.5 -60.5z" />
    <glyph glyph-name="uni2077" unicode="&#x2077;" horiz-adv-x="294" 
d="M274 678l-155 -378h-54l145 352h-164v48h228v-22z" />
    <glyph glyph-name="uni2078" unicode="&#x2078;" horiz-adv-x="354" 
d="M287 598q0 -57 -47 -83q28 -10 45 -36t17 -61q0 -55 -35 -88.5t-90 -33.5t-90 33.5t-35 88.5q0 35 17 61t45 36q-47 26 -47 83q0 47 30.5 76.5t79.5 29.5t79.5 -29.5t30.5 -76.5zM106 418q0 -33 19 -53.5t52 -20.5t52 20.5t19 53.5q0 34 -19 52.5t-52 18.5t-52 -18.5
t-19 -52.5zM115 598q0 -27 17 -44t45 -17t45 17t17 44q0 28 -17 45t-45 17t-45 -17t-17 -45z" />
    <glyph glyph-name="uni2079" unicode="&#x2079;" horiz-adv-x="365" 
d="M174 441q-56 0 -90 36t-34 95q0 58 35.5 95t94.5 37t95 -37t36 -95q0 -42 -24 -85l-109 -191h-54l91 155q-10 -10 -41 -10zM257 572q0 37 -21 60.5t-56 23.5t-55.5 -23.5t-20.5 -60.5q0 -39 20 -61t56 -22t56.5 22.5t20.5 60.5z" />
    <glyph glyph-name="Euro" unicode="&#x20ac;" horiz-adv-x="612" 
d="M114 395h-79l29 56h54q16 119 84 188t175 69q125 0 191 -116l-55 -30q-42 90 -136 90q-78 0 -128.5 -52t-65.5 -149h258l-29 -56h-234v-90h263l-29 -56h-229q15 -97 65.5 -149t128.5 -52q94 0 136 90l55 -30q-66 -116 -191 -116q-107 0 -175 69t-84 188h-83l29 56h50v90z
" />
    <glyph glyph-name="trademark" unicode="&#x2122;" horiz-adv-x="811" 
d="M144 656h-114v44h277v-44h-114v-356h-49v356zM383 300v400h52l118 -282l118 282h52v-400h-49v295l-107 -258h-28l-107 258v-295h-49z" />
    <glyph glyph-name="partialdiff" unicode="&#x2202;" horiz-adv-x="592" 
d="M172 560l-65 17q28 62 79 96.5t121 34.5q107 0 164 -91t57 -262q0 -99 -30 -180q-30 -83 -95.5 -133t-154.5 -50q-87 0 -143 59q-55 58 -55 155q0 126 75 216q77 90 199 90q41 0 80.5 -16t57.5 -41q-9 90 -52.5 142.5t-109.5 52.5q-81 0 -128 -90zM315 454
q-91 0 -145 -74t-54 -172q0 -70 36.5 -114t95.5 -44q93 0 151 73q60 73 60 172q0 75 -38 117t-106 42z" />
    <glyph glyph-name="product" unicode="&#x220f;" horiz-adv-x="541" 
d="M156 0h-62v700h353v-700h-62v644h-229v-644z" />
    <glyph glyph-name="summation" unicode="&#x2211;" horiz-adv-x="542" 
d="M60 15l215 335l-215 335v15h416v-56h-322l183 -286v-16l-183 -286h322v-56h-416v15z" />
    <glyph glyph-name="minus" unicode="&#x2212;" horiz-adv-x="544" 
d="M479 289h-410v56h410v-56z" />
    <glyph glyph-name="radical" unicode="&#x221a;" horiz-adv-x="552" 
d="M286 108l182 600h56l-215 -708h-47l-108 333h-94v56h133z" />
    <glyph glyph-name="infinity" unicode="&#x221e;" horiz-adv-x="876" 
d="M636 168q-110 0 -198 133q-88 -133 -198 -133q-81 0 -131 53q-49 52 -49 138t49 138q50 53 131 53q110 0 198 -133q88 133 198 133q80 0 130 -53t50 -138t-50 -138t-130 -53zM253 224q91 0 158 135q-67 135 -158 135q-60 0 -95.5 -36t-35.5 -99t35.5 -99t95.5 -36z
M623 224q60 0 95.5 36t35.5 99t-35.5 99t-95.5 36q-91 0 -158 -135q67 -135 158 -135z" />
    <glyph glyph-name="integral" unicode="&#x222b;" horiz-adv-x="468" 
d="M109 -50l114 586q18 91 62.5 131.5t123.5 40.5q39 0 61 -13l-24 -57q-22 12 -50 12q-88 0 -109 -104l-114 -586q-18 -92 -61.5 -132t-120.5 -40q-43 0 -65 13l24 57q24 -12 50 -12q47 0 72.5 24.5t36.5 79.5z" />
    <glyph glyph-name="approxequal" unicode="&#x2248;" horiz-adv-x="572" 
d="M110 181l-40 39q56 78 122 78q38 0 91 -27q52 -27 89 -27q52 0 90 45l40 -39q-56 -78 -122 -78q-38 0 -91 27q-52 27 -89 27q-52 0 -90 -45zM110 381l-40 39q56 78 122 78q38 0 91 -27q52 -27 89 -27q52 0 90 45l40 -39q-56 -78 -122 -78q-38 0 -91 27q-52 27 -89 27
q-52 0 -90 -45z" />
    <glyph glyph-name="notequal" unicode="&#x2260;" horiz-adv-x="555" 
d="M277 365h-193v56h225l64 111l48 -28l-48 -83h98v-56h-130l-63 -110h193v-56h-225l-64 -111l-48 28l48 83h-98v56h130z" />
    <glyph glyph-name="lessequal" unicode="&#x2264;" horiz-adv-x="530" 
d="M465 0h-409v56h409v-56zM427 188l-334 180v68l334 180v-62l-283 -152l283 -152v-62z" />
    <glyph glyph-name="greaterequal" unicode="&#x2265;" horiz-adv-x="530" 
d="M65 56h409v-56h-409v56zM103 616l334 -180v-68l-334 -180v62l283 152l-283 152v62z" />
    <glyph glyph-name="lozenge" unicode="&#x25ca;" horiz-adv-x="560" 
d="M311 0h-62l-180 350l180 350h62l180 -350zM133 350l147 -286l147 286l-147 286z" />
    <glyph glyph-name="NULL" horiz-adv-x="0" 
 />
    <glyph glyph-name="CR" horiz-adv-x="333" 
 />
    <glyph glyph-name="CR.001" horiz-adv-x="252" 
 />
    <glyph glyph-name="apple" horiz-adv-x="794" 
d="M693 617v-595q0 -9 -6.5 -15.5t-15.5 -6.5q-4 0 -7 1l-267 77l-267 -77q-3 -1 -7 -1q-9 0 -15.5 6.5t-6.5 15.5v595q0 18 16 22l270 78q10 4 20 0l270 -78q16 -4 16 -22zM375 366v303l-230 -67q6 -93 71 -161q66 -67 159 -75zM649 602l-230 67v-303q94 8 158 75
q66 68 72 161zM144 463v-412l231 67v204q-73 6 -134 43.5t-97 97.5zM419 118l231 -67v412q-37 -60 -98 -97.5t-133 -43.5v-204z" />
    <glyph glyph-name="No" horiz-adv-x="1214" 
d="M526 105v595h66v-700h-78l-347 593v-593h-66v700h78zM1127 0h-409v56h409v-56zM751 266q-65 79 -65 182t65 182q65 78 171 78t171 -78q65 -79 65 -182t-65 -182q-65 -78 -171 -78t-171 78zM796 590q-45 -60 -45 -142t45 -142q46 -60 126 -60t125 60q46 59 46 142t-46 142
q-45 60 -125 60t-126 -60z" />
    <glyph glyph-name="zero.tn" 
d="M103 611q61 97 180 97q118 0 179 -97q62 -97 62 -261t-62 -262q-62 -96 -179 -96q-119 0 -180 96q-61 97 -61 262q0 166 61 261zM413 569q-47 83 -130 83t-130 -83t-47 -219t47 -219t130 -83t130 83t47 219t-47 219z" />
    <glyph glyph-name="one.tn" 
d="M164 597l162 103h16v-700h-62v594l-116 -73v76z" />
    <glyph glyph-name="two.tn" 
d="M491 0h-414v23l255 330q49 62 63 94q15 33 15 77q0 59 -33 93.5t-91 34.5q-53 0 -90 -39t-46 -102l-58 11q7 80 61 134q52 52 133 52q85 0 136.5 -50t51.5 -136q0 -80 -85 -189l-214 -277h316v-56z" />
    <glyph glyph-name="three.tn" 
d="M68 192l62 9q8 -71 48 -112t105 -41q75 0 116 44t41 122q0 81 -41 124t-116 43q-33 0 -62 -18l-30 39l181 242h-269v56h366v-17l-189 -251q9 3 26 3q80 0 139 -60q59 -59 59 -161q0 -100 -60 -161q-58 -61 -161 -61q-88 0 -146.5 53.5t-68.5 146.5z" />
    <glyph glyph-name="four.tn" 
d="M418 0h-62v161h-309v17l295 522h76v-483h93v-56h-93v-161zM356 612l-221 -395h221v395z" />
    <glyph glyph-name="five.tn" 
d="M79 184l61 11q20 -147 144 -147q74 0 113 47.5t39 132.5q0 88 -39.5 134t-112.5 46q-89 0 -144 -94l-44 10l36 376h327v-56h-271l-25 -238q54 58 127 58q97 0 153.5 -63.5t56.5 -172.5q0 -106 -58 -171q-59 -65 -158 -65q-85 0 -139 49t-66 143z" />
    <glyph glyph-name="six.tn" 
d="M283 448q95 0 157 -66q61 -64 61 -162t-61 -163q-62 -65 -157 -65t-157 65q-61 65 -61 163q0 64 37 129l207 359h65l-156 -277q23 17 65 17zM129 220q0 -75 43 -124q44 -48 111 -48t110 48q44 50 44 124q0 78 -42.5 125t-111.5 47t-111.5 -47t-42.5 -125z" />
    <glyph glyph-name="seven.tn" 
d="M481 680l-277 -680h-65l268 644h-314v56h388v-20z" />
    <glyph glyph-name="eight.tn" 
d="M469 526q0 -50 -24 -89t-64 -60q49 -18 80.5 -68t31.5 -113q0 -96 -61 -150q-60 -54 -149 -54t-150 54q-60 54 -60 150q0 63 31.5 113t80.5 68q-40 21 -64 60t-24 89q0 82 51 131q52 51 135 51t134 -51q52 -49 52 -131zM283 48q67 0 106.5 39.5t39.5 108.5
q0 68 -39.5 108t-106.5 40t-106.5 -40t-39.5 -108t39.5 -108t106.5 -40zM373 617q-35 35 -90 35t-90 -35q-34 -34 -34 -91q0 -58 34 -92t90 -34t90 34t34 92q0 57 -34 91z" />
    <glyph glyph-name="nine.tn" 
d="M283 252q-95 0 -157 65q-61 65 -61 163t61 162q61 66 157 66q95 0 157 -66q61 -64 61 -162q0 -64 -37 -129l-207 -359h-65l156 277q-23 -17 -65 -17zM437 480q0 74 -44 123q-43 49 -110 49q-68 0 -111 -49q-43 -47 -43 -123q0 -78 42.5 -125t111.5 -47t111.5 47t42.5 125
z" />
    <glyph glyph-name="edition" horiz-adv-x="2491" 
d="M526 105v595h66v-700h-78l-347 593v-593h-66v700h78zM1127 0h-409v56h409v-56zM751 266q-65 79 -65 182t65 182q65 78 171 78t171 -78q65 -79 65 -182t-65 -182q-65 -78 -171 -78t-171 78zM796 590q-45 -60 -45 -142t45 -142q46 -60 126 -60t125 60q46 59 46 142t-46 142
q-45 60 -125 60t-126 -60zM1346 648q38 56 107 56q68 0 106 -56t38 -148q0 -93 -38 -149q-37 -55 -106 -55q-70 0 -107 55q-38 56 -38 149q0 92 38 148zM1519 616q-24 40 -66 40t-67 -40q-24 -40 -24 -116t24 -116q25 -40 67 -40t66 40q25 40 25 116t-25 116zM1746 648
q38 56 107 56q68 0 106 -56t38 -148q0 -93 -38 -149q-37 -55 -106 -55q-70 0 -107 55q-38 56 -38 149q0 92 38 148zM1919 616q-24 40 -66 40t-67 -40q-24 -40 -24 -116t24 -116q25 -40 67 -40t66 40q25 40 25 116t-25 116zM2146 648q38 56 107 56q68 0 106 -56t38 -148
q0 -93 -38 -149q-37 -55 -106 -55q-70 0 -107 55q-38 56 -38 149q0 92 38 148zM2319 616q-24 40 -66 40t-67 -40q-24 -40 -24 -116t24 -116q25 -40 67 -40t66 40q25 40 25 116t-25 116z" />
    </font>
</defs>
</svg>
